アットウィキロゴ

強風オールバック

アーティスト ゆこぴ

BPM BASIC ADVANCED EXPERT MASTER Re:MASTER
135 2 6 9+ 12+ -

EXPERT MASTER Re:MASTER
譜面制作者 はっぴー 鳩ホルぴー -

BASIC


ADVANCED


EXPERT


MASTER

(135)
{8}3/4h[4:1],2,3h[4:1],1,4h[4:1],1,3qq6[2:1],,
{8}6,,6,,7,8b,8b,,
{8}6/5h[4:1],7,6h[4:1],8,4h[4:1],8,5>2q6[2:1],,
{4}2,1,1,7-4[8:1]/8-3[8:1],
{8}7/8,,7<4[8:1],7,8v3[8:1],8,7pp3[2:1],,
{8}5,,5,,5,1b,1b,,
{8}3/4h[4:1],2,3h[4:1],1,4h[4:1],1,3>6p5[2:1],,
{8}5,,,,,3x/4x,3x/4x,,
{8}1x-6[8:1],,7,7,2q6[8:1],2,8,,
{8}3<6[8:1],3,1,,4-6[8:1],4,1,1,
{8}8x-3[8:1],,2,2,7<6v3[8:1],7,1,,
{8}6>3[8:1],6,8,,5-3[8:1],5,8,8,
{8}1x-6[8:1],,7,7,2q6[8:1],2,8,,
{8}3<6[8:1],3,1,,4-6[8:1],4,1,1,
{8}8x-3[8:1],,2,2,7p3[8:1],7,1,,
{8}6v1[8:1],6,1,,2b/8b,,4/6,,
{8}7h[4:1],,5,4,3,3,5,4,
{8}7,7,5,6,4,3,5,6,
{8}4,3,2-7[8:1]*pp4[8:1],,,,,3,
{8}4,5,6,7,4/8,,,,
{8}2h[4:1],,4,5,6,6,4,5,
{8}3,3,4,5,6-3[8:7],,,,
{4},,2xpp4[8:1],7qq5[8:1],
{8}1pp3[8:1],,8qq6[8:1],,1,1,1/8,,
{8}7,7,1h[4:1],8,8,2,8h[4:1],3,
{8}3,7,4h[4:1],6,6,3,5h[4:1],1,
{8}1,4,2pp4[8:1]*-7[8:1],,,,,6,
{8}5,4,3,2,1/5,,3/7,,
{4}8z4[4:1],4z8[4:1],3,{8}2x,2x,
{4}1/2,3/4,5/6,7/8-6[8:1]*v5[8:1],
{4}8-2[8:1]*v3[8:1],8-6[8:1]*v5[8:1],8-3[8:1]*>3[8:1],8-5-2-7-4[2:1]b,
{4},,,{32}3bx,2x,1x,8x,7x,6x,5x,4x,
{8}3x,,3/4h[4:1],2,3h[4:1],1,4pp1[2:1],,
{8}2,,3,,4,8b,8b,,
{8}6/5h[4:1],7,6h[4:1],8,4h[4:1],8,5>2q6[2:1],,
{4}1,1,1,7-4[8:1]/8-3[8:1],
{8}7/8,,7-5[8:1],7,8-4[8:1],8,7pp4[2:1],,
{8}4,,3,,2,1b,1b,,
{8}3/4h[4:1],2,3h[4:1],1,4h[4:1],1,3>4pp2[8:5],,
{8}5,,,,,7x,7xh[4:15],,
{32}A1,B1,C,B5,,,,,{4},{2},
{32}A1,B1,C,B5,,,,,{4},{2},
{32}A8,E8,E7,A6,,,,,E1,B8,B6,E6,,,,,E2,B2,B4,E5,,,,,A2,E3,E4,A4,,,,,
{32}A1,B1,C,B5,,,,,A8,E8,E7,A6,,,,,A2,E3,E4,A4,,,,,{4}A3/A7/B3/B7/D4/D8,
{8}8x-3[8:1],,1,1,2q6[8:1],2,8,,
{8}7V53[8:1],7,1,,2>6[8:1],2,7,7,
{8}8x-3[8:1],,1,1,2-5[8:1],2,8,,
{8}6,4,3<4v1<8[4:1]b,3,,,,,
{16}A6,,,B6,B5,,{8}B4,B3,A3,2bxqq4[8:3]*qq6[8:3],,
{8},,,,5x/7x,8b,8b,,
{8}6/5h[4:1],7,6h[4:1],8,4h[4:1],8,5>1q6[2:1],,
{4}1,8,8,7-4[8:1]/8-3[8:1],
{8}7/8,,7-3[8:1],7,8-5[8:1],8,7pp4[8:3]*pp2[8:3],,
{8},,,,1x/3x,8b,8b,,
{8}3/4h[4:1],2,3h[4:1],1,4h[4:1],1,3>1p8<5[2:1],,
{8},,,,,3x/4x,3x/4x,,
{8}1>4[8:1]/8<5[8:1],2/7,1b-5[8:1]/8b-4[8:1],,1b/8b,,6b/3bqq6[8:3]*qq7[8:3],,
{8},,,,5x/7x,8b,8b,,
{8}6/5h[4:1],7,6h[4:1],8,4h[4:1],8,5>2q8[2:1],,
{8}2x,1x,1bx,1bx,1bx,,5-3[8:1]/8-2[8:1],,
{4}5x/8x,6-2[8:1]/7-3[8:1],6x/7x,7pp6p4[8:5],
{8},,,,2x,1b,1b,,
{8}3/4h[4:1],2,3h[4:1],1,4h[4:1],1,3>6[4:1]*p6[4:1],,
{8},,,,5/6,5/6,4/5,3/4,
{8}3q8[8:1]/4<7[8:1],,3x/4x,,1/2,1/2,{16}2,1,3h[8:5],8h[16:9],
{4},,,C,
{8}1x-5[8:1],,7,7,3p7[8:1],3,5,,
{8}2<7[8:1],2,4,,1-7[8:1],1,4,4,
{8}5x-1[8:1],,4,4,6<7v2[8:1],6,4,,
{8}7>2[8:1],7,5,,8-2[8:1],8,5,5,
{8}4x-8[8:1],,5,5,3p7[8:1],3,5,,
{8}2<7[8:1],2,4,,1-7[8:1],1,4,4,
{8}5x-1[8:1],,4,4,6q2[8:1],6,4,,
{8}7v4[8:1],7,5,5,8w4[8:1],,A8,,
E

Re:MASTER


名前:
コメント:

タグ:

+ タグ編集
  • タグ:
最終更新:2026年07月16日 22:25