BASIC
ADVANCED
EXPERT
MASTER
(175)
{1}4V63-7-2-8<1[4:23]/5h[1:6],
{1},
{1},
{1},
{1},
{1},
{4},,,{16}1,8,1,,
{8}2bx/7bx,,3,3-6[8:1],,8,8,,
{8}7<4[8:1],7,1,1,,3/4,3/4,,
{8}2/8,,7,7-2[8:1],,4,4,,
{8}3>8[8:1],3,5,5,,{16}1,8,1,8,1,,
{8}2bx/7bx,,6,6-3[8:1],,1,1,,
{8}2>5[8:1],2,8,8,,5/6,5/6,,
{8}1/7,,2,2-5[8:1],,6,6v1[8:1],,
{8}3,,4/8,4/8,,2/6,2b/6b,,
{8}5h[4:1],,4,6h[4:1],,5,E7,,
{8}5h[4:1],,6,4h[4:1],,5,E4,,
{8}5h[4:1],,4,6h[4:1],,5,7h[4:1],,
{8}E8,E7,E6,E5,,4/6,4/6,,
{8}4h[4:1],,5,3h[4:1],,4,E3,,
{8}4h[4:1],,3,5h[4:1],,4,E6,,
{8}8,7,5/6,,1,2,3/4,,
{8}6,5,4,3/6,,E5,C,,
{8}1b/8bh[4:1],,1,7h[4:1],,8,E7,,
{8}1h[4:1],,8,2h[4:1],,1,E3,,
{8}8h[4:1],,1,7h[4:1],,8,6h[4:1],,
{8}E7,E8,E1,E2,,2/8,2/8,,
{8}3/1h[4:1],,2,8h[4:1],,1,E8,,
{8}6/8h[4:1],,7,1h[4:1],,8,1/8,,
{2}3-1[8:1]/4-8[8:1],5-1[8:1]/6-8[8:1],
{8}1/8,,2/7,2/7,,8b,,1>4[4:1],
{8}1,,,8<5[4:1],8,,,2,
{8}2>5[4:1],,5p8[4:1],,8,,,5<8[4:1],
{8}5,,,4>1[4:1],4,,,6,
{8}6<1[4:1],,1p4[4:1],,4,,,2V46[4:1],
{8}2,,,7V53[4:1],7,,,2,
{8}2,,4,5,6,7,1/8,,
{8}1/2,,5/7,,3/4,2/5,,7/8,
{8},2/4,,5/6,5/6,,7<4[8:1]/8v3[8:1],,
{4},7<4[8:1]/8v3[8:1],,7<4[8:1]/8v3[8:1],
{4},7<4[8:1]/8v3[8:1],,2/5,
{8}5,4<8[4:1],3,2,,1,1pp1[4:1],,
{8}7qq7[4:1],,,,,8,7<4[8:1]/8v3[8:1],,
{4},7<4[8:1]/8v3[8:1],,7<4[8:1]/8v3[8:1],
{4},7<4[8:1]/8v3[8:1],,2/4,
{8}5,5-7[8:1]*-8[8:1],,5-3[8:1]*-2[8:1],,5q4[8:3]*<4[8:3],,5b,
{4},,3/4,5q2[8:1]/6<1[8:1],
{4},5q2[8:1]/6<1[8:1],,5q2[8:1]/6<1[8:1],
{4},5q2[8:1]/6<1[8:1],,8/3-6[8:1],
{4}1-7[8:1],3-8[8:1],4q8[8:1],2pp5[2:1],
{8},,,,,6,5q2[8:1]/6V82[8:1],,
{4},5q2[8:1]/6V82[8:1],,5q2[8:1]/6V82[8:1],
{4},5q2[8:1]/6V82[8:1],,3/8,
{8}1/6,5,4,3/8,,1/7,2/6,3/5,
{8},4/5,4q2[4:1]b/5<2[4:1]b,,,,,,
{16}1b/8b,,,,1,8,1,8,1,8,1,8,1,8,1,8,
{16}2,7,2,7,2,7,2,7,1h[8:1],,{8}8h[8:1],7h[8:1],6h[8:1],
{8}5,5-1[8:1],6,5,,4-8[8:1],3,4,
{8},7h[8:1],8h[8:1],1h[8:1],2h[8:1],3h[8:1],4h[8:1],5,
{16},,7,8,7,8,7,,2,1,2,1,2,,7,5,
{16}6,,2,4,3,,{8}4/5,5/4>1[8:1],,7,7V53[8:1],
{8},1,1,{16}2,4,3,,7,5,6,,4/5,,
{8}2bx/7bx,2bx/7bx,2bxpp4[4:1]/7bxqq5[4:1],2bx/7bx,,,,,
{1}6/3h[1:1],
{1}4h[1:1],
{1}5h[1:1],
{1}6qq7[4:3],
{1}2h[1:1],
{1}4h[1:1],
{8}Cfh[8:7],,,,,,,8bx,
{4},,,1v3[8:1]/7<3[8:1],
{4},1v3[8:1]/7<3[8:1],,1v3[8:1]/7<3[8:1],
{4},1v3[8:1]/7<3[8:1],,5/2v4[8:1],
{4}6<1[8:1],5-2[8:1],7p3[8:1],8qq4[2:1],
{8},,,,,5,3q1[8:1]/5V71[8:1],,
{4},3q1[8:1]/5V71[8:1],,3q1[8:1]/5V71[8:1],
{4},3q1[8:1]/5V71[8:1],,2/8,
{8}3/7,4,5,2/6,,1/7,2/6,3/5,
{8},4/5,4q2[4:1]b/5<2[4:1]b,,,,,,
{4}4b/8b,2h[8:1]/6h[8:1],3h[8:1]/8h[8:1],1h[8:1]/6h[8:1],
{8}4h[8:1]/7h[8:1],,2h[8:1]/5h[8:1],,5/7,6,4/5,3,
{4}1h[8:1]/2h[8:1],3h[8:1]/4h[8:1],5h[8:1]/6h[8:1],7h[8:1]/8h[8:1],
{4}2h[8:1]/4h[8:1],5h[8:1]/7h[8:1],4>1[8:1]/8<5[8:1],,
{8}2,2-6[8:1],,1-5[8:1],,8-4[8:1],,7-2[8:1],
{8},3-6[8:1],,8,8,,1/7,,
{8}1/8,1,1/3,1,1/5,1,1/7,1,
{8}1/8,8,6/8,8,3/8,8,1/8,,
{8}7/8,6,5,4/5,3,2,1/2,8,
{8}1/8,7,7h[4:1],{24}A1,B1,C,B5,,,{8}6,6,6,
{8}3,2,1/4,2,3/6,7,5/8,7,
{8}5-1[8:1]/6>3[8:1],,,,D2/E2,D6/E6,D4/E4,D8/E8,
{8}3,3-7[8:1],,8-5[8:1],,4-1[8:1],,6-1[8:1],
{8},2,2,2/8,,{16}2,1,3,,7,8,
{8}6,5,1/5,2,3/7,6,2/5,{16}3,4,
{8}2,1,1/8,7,6,5,4h[4:1]/5q2[8:1]b,,
E
Re:MASTER
最終更新:2026年09月15日 00:04