アットウィキロゴ

シャルル〈でらっくす〉

アーティスト バルーン

BPM BASIC ADVANCED EXPERT MASTER Re:MASTER
145 3 6 9 11 -

EXPERT MASTER Re:MASTER
譜面制作者 はっぴー はっぴー -

BASIC


ADVANCED


EXPERT

(145)
{1}5h[1:1],4h[1:1],6h[1:1],5h[1:1],4h[1:1],3h[4:7],6h[4:3],
{4}4/5,4/5,C,,6,5/7,7/8,2/5,3,2/4,1/2,4/7,6,5/7,7/8,2/5,3,2/4,1/2,4/5,7h[4:1],5,7/8,1/5,2h[4:1],4,1/2,4/8,7h[4:1],5,7/8,1/5,2h[4:1],4,1/2,2b/7b,6h[4:1],5,3h[4:1],4,6,5/7,B8,B1,3h[4:1],4,6h[4:1],5,1/8,1-4[8:1]/8-5[8:1],,3/6,
{8}2,2,1,,
{4}3/8,5/6,7<4[4:1]/8>3[4:1],,,2/5,6h[4:1],5,3h[4:1],4,B1,B8,1/8,4/5,C,,2/7,4/5,5/7h[4:1],3,4/2h[4:1],6,E6,E8,E2,E4,1/8,5/6,4/7,3>6[8:3],,,1/8,4/5,4/2h[4:1],6,5/7h[4:1],3,E4,E2,E8,E6,4/5,,C,,5/6h[4:1],8,4/3h[4:1],1,5-8[8:1],,4-1[8:1],,7h[4:1],5h[4:1],4h[4:1],2,1/2,4/7,7/8,2/5,
{8}4b/7b,,,3,2/4,,,6,5/7,,
{4}4/5,3/6,,3h[4:1],1h[4:1],8h[4:1],6,5/7,4/5,2/4,C,4/3h[4:1],1,5/6h[4:1],8,4>1[4:1],,5<8[4:1],,2h[4:1],4h[4:1],5h[4:1],7,7/8,2/5,1/2,4/7,
{8}2b/5b,,,6,5/7,,,3,2/4,,
{4}4/5,3/6,,5/6,4/7,3/4,2/5,E1/E5,E3/E7,C,,6h[1:1],,5,5,3h[1:1],,4,4,6h[1:1],,5,4,3h[1:1],,4,5,6,5/6,3,3/4,E1,E7,E5,3/6,8<5[4:1],,1h[2:1],,4,6,1/8,,3,3/4,6,5/6,E1,E3,E5,3/6,1>4[4:1],,8h[2:1],,5,3,1/8,3/6,8/4>1[4:1],,5,,1/5,2/6,3/7,4/8h[4:1],1h[1:1],,,,,,
{2}4/5,6h[1:1],5,3h[1:1],4,6h[1:1],5,
{4}3,2/7,4/5,1/8,
{8}2b/7b,,,2,1/3,,,7,6/8,,
{4}4/5,3/6,,6h[4:1],8h[4:1],1h[4:1],3,2/4,4/5,5/7,1/8,4/6h[4:1],8,5/3h[4:1],1,7/8,2/5,1/2,4/7,8/1>8[2:1],,,,1/8<1[2:1],,,,6,5/7,3,2/4,4/5,2/7,1/8,3/6,3/4,2/5,5/6,4/7,
{8}C,
E

MASTER

(145){1}4-8[4:5],,5-1[4:5],,4h[4:11],5h[1:2],,{4}4,5,Cf/B2/B7,,{16}6,5,,5,6,,8,1,,3,4,,2x/5x,,,,3,4,,4,3,,1,8,,6,5,,5/4,,,,3,4,,4,3,,1,8,,6,5,,7x/4x,,,,6,5,,5,6,,8,1,,3,4,,4/5,,,,6,5,,8,1,,3,4,,4,2,,1x/5x,,,,
3,4,,1,8,,6,5,,5,7,,4/6,,,,3,4,,1,8,,6,5,,5,7,,4x/8x,,,,6,5,,8,1,,3,4,,4,2,,3/5,,,,

{8}7<4[8:1],7,1,,2>5[8:1],2,8,8,1,1,7,,E1,C,E5,,8<5[8:1],8,3,2,1>4[8:1],1,6,7,8w4[4:1],,,,,,3/5,,5,6,7-3[8:1],7,4-1[8:1],4,8,7,6h[4:1],,5,4/7,,1,1>8[2:1],8,8,,,,,,4/5,,3/5,,4/6,7,7,,1q3[2:1],,Cf,,,,8x,,1/8,7,7h[4:1],,5h[4:1],,4h[4:1],,3,,2-4[8:1],2,6-8[8:1],6,1,1,1/8,,{4}E6/B6/B7,E4/B3/B2,E1/Cf/E5,,1>6[4:1],,8,{8}1/8,2,2h[4:1],,4h[4:1],,5h[4:1],,6,,8,7,6,5,4,3,2,1,{2}1/8,C,

{4}1-5[8:1]/2-4[8:1],1x/2x,8-4[8:1]/7-5[8:1],8x/7x,{8}3,4,5v3[4:1]*<3[4:1],6,,,,,2/4,5,4-1[8:1]/6-3[8:1],,,,1/8,,6/7,,B6/B7/E8,,E1/E5/C,,B3/B2/E2,,8b,,5,4,3/5,,8,1,2-6[8:1]/8,,7-3[8:1],,4,,3/5,,4/6,7,8,4,3/5,2,1,5,4V26[4:1]/6,,6<4[4:1],,5,,5,,{4}8-4[8:1]/7-5[8:1],8x/7x,1-5[8:1]/2-4[8:1],1x/2x,{8}6,5,4v6[4:1]*>6[4:1],3,,,,,7/5,4,4-1[8:1]/6-3[8:1],,,,1/8,,6/7,,B6/B7/E8,,E1/E5/C,,B3/B2/E2,,8b,,2,3,2/4,,7,6,5-1[8:1]/7,,4-8[8:1],,1,,4/6,,3/5,2,1,5,4/6,7,8<5[8:1]*>3[8:1],8,,,1b,,{12}2x/7x,2x/7x,2x/7x,2x/7x,,,

{4}5<8[4:5],,E1,,C,,E3,E2,4>1[4:5],,E1,,C,,E7,E8,7,5/7,7,5/7,7/E7,7/C,7/E3,7/E1,7/Ch[2:1],7,7,7,7/E1,7/C,7/E5,7,
2,4/2,2,4/2,2/E3,2/C,2/E7,2/E1,2/Ch[2:1],2,2,2,2/E1,2/C,2/E5,2,7,7,5/6,6,2,2,3/4,5,{2}4h[1:1]/5h[2:1],,,{8}E6,E5,E4,,{1}8b,,{4},,,3/6,2-5[8:1]/7-4[8:1],2x/7x,1-5[8:1]/8-4[8:1],1x/8x,

{4}2x/7x,{8}6,3,2/4,,3,6,7-3[8:1]/5,,2-6[8:1],,5,,8,,4/5,,E5,,E4/E6,,E3/E7/C,,E2/B1/B8/E8,,5-1[8:1]/4-8[8:1],,,,2b/7b,,{4}1-5[8:1]/2-4[8:1],1x/2x,8-4[8:1]/7-5[8:1],8x/7x,1-5[8:1]/2-4[8:1],1x/2x,8<1[1:2],1x,E2,E1,E8,E7,E6,E5,E4,E3,{8}2-5[8:1],,8,8,7-4[8:1],,1,1,2-6[8:1],2,5<4[4:1],5,4,,,,6>3[8:1],6,,,B3/B4/B5/B6,,2/7,,1h[4:1]/8h[2:1],E

Re:MASTER


  • MASTER譜面を追加しました。修正等ありましたらよろしくお願いします。 -- Sugar (2026-08-10 14:24:36)
名前:
コメント:

タグ:

+ タグ編集
  • タグ:
最終更新:2026年08月10日 14:24