| アーティスト |
幽閉サテライト(Produce:嵯峨飛鳥 Arranged:Iceon) |
BASIC
ADVANCED
EXPERT
MASTER
(156)
{1}3>8[2:1]/5h[4:7],
{4}8,1,2,3,
{1}4h[2:3]/5<8[2:1],
{4}E1,C,E5,,
{4}5/7h[2:1],,6,5/6,
{4}4/2h[2:1],,3,3/4,
{2}5/7-4[8:1],5/3-8[8:1],
{4}8/1w5[4:1],,,2b/6b,
{8}7h[8:3],,5,5,,4/6,3,5,
{8}2,6,7,8,1-5[8:1],,,,
{8}7h[8:3],6,5,4,3h[8:3],4,5,6,
{8}2/7,2/7,3/6,3/6,4x-1[8:1]/5x-8[8:1],,,,
{1}2x/7x,
{2}6h[2:1],5h[2:1],
{2}4h[2:1],3h[2:1],
{4}5h[1:1],3,2,1<5[2:1],
{1},
{8}4/6,,7h[4:1],,5,5,6,,
{8}3/5,,2h[4:1],,4,4,3,,
{4}6/5h[4:3],6,4,4,
{8}6,4,7,3,2b/8b,,3/7,,
{8}4/6h[4:1],,5,,7h[4:1],5,4,,
{4}2/6h[2:1],3,4,5/7,
{4}7h[4:1],5h[4:1],4h[4:1],2h[4:1],
{4}8h[4:3],E1,C,E5,
{8}6/3h[4:1],,4,,2h[4:1],4,5,,
{4}7/3h[4:1],B4,1/6h[4:1],B5,
{8}7h[8:1],6h[8:1],5h[8:1],4h[8:1],3h[8:1],2h[8:1],1h[8:1],8h[8:1],
{8}7-3[8:1],,1,1-5[8:1],,6,6b,,
{8}1x/7x,1/7,2/6,2/6,3/5,3/5,4,4,
{16}3x/5x,,6,5,6x,,3,4,3x,,{8}2/6,1b/7b,,
{8}7-4[8:1],,2,2-5[8:1],,6,7,8,
{8}1/2,3,4,5,4-1[8:1]/6-1[8:1],,4x/6x,,
{8}8x-4[8:1],,1,1-5[8:1],,8,7,6,
{4}5>1[4:1],1<5[4:1],5-1[8:1],,
{8}2x-6[8:1],,7,7-3[8:1],,3,2,1,
{8}6/8,5,4,3,1-6[8:1]/2-6[8:1],,1x/2x,,
{8}7x-4[8:1],,3,3-8[8:1],,7,6,5,
{8}3x/4x,3/4,2x/5x,2/5,{16}6,5,6,,3b/8b,,,,
{8}2-5[8:1],,6,6-1[8:1],,2,3,4,
{8}5/6,7,3/8,4,5-1[8:1]/6<1[8:1],,5x/6x,,
{8}3x-8[8:1],,7,7-4[8:1],,1,2,3,
{4}4<8[4:1],8>4[4:1],{32}4-8[16:1],,,,,,,,,Cf,,,,,,,
{8}2-6[8:1],,4,4-8[8:1],,8,1,2,
{8}3/4,5,6,7,4x>1[8:1]/8xq5[8:1],,4x/8x,,
{8}6x-1[8:1],,2,2-5[8:1],,8,7,6,
{4}3v8[4:1]/5v8[4:1],,,1b/7b,
{2}4h[2:1],5h[2:1],
{1}4>5[4:3],
{1}Cfh[4:3],
{8}1/8,,2/7,,5,4,3/6,,
{4}5/2-5[8:1],7,4/8-4[8:1],3,
{4}3/4,1/2,7/8,5/6,
{6}3h[6:1],4h[6:1],5h[6:1],6-2[8:1],,,
{16}3,1,2,,6,8,7,,{8}1,8,3,4,
{16}7,5,6,,2,4,3,,{8}5,2,1/6,,
{16}7x,8,7,8,6x,1,6,1,5x,2,5,2,4x,3,4,3,
{16}5x,2,6,3,7x,4,8,5,1b,,,,,,,,
{8}5/6,5/6,7/8,7/8,1,7,6,5,
{8}3/4,3/4,1/2,1/2,8,2,3,4,
{1}6x/5xq4[4:3]*<4[4:3],
{1},
{1}5>2[2:1]/6h[2:1],
{4}E2,E3,E6,E5,
{1}3h[2:1]/4<7[2:1],
{4}B4,B5,B6,B1/B7,
{2}5/3-5[8:1],6/7-3[8:1],
{2}2/1-5[8:1],3b/7b,
{8}3,3,4,2,7,7,5,6,
{4}4x>8[4:1],8<4[4:1],4p8[4:1],8p4[4:1],
{4}4>8[4:1],8<4[4:1],4-8[4:1],8,
{8}6x,6,1/7,1/7,2x,2,3/5,3/5,
{16}4x,6,4,6,3x,7,3,7,2x,8,2,8,{32}2x,3x,4x,5x,6x,7x,8x,1x,
{1}2b,
{4}4-8[16:1]/5-1[16:1],{32}4x/5x,Cf,,,,,,,{8}2x/7x,,6,5,
{8}3/4,2,1,8,1>4[8:1]/7-4[8:1],,1x/7x,,
{8}6x-2[8:1],,1,1-5[8:1],,5,6,7,
{4}8>4[4:1],4<8[4:1],8w4[8:1],,
{8}3x>8[8:1],,6,6-2[8:1],,2,3,4,
{8}5/6,7,1,2,3>8[8:1]/4-8[8:1],,3x/4x,,
{8}7x<4[8:1],,1,1-5[8:1],,8,7,6,
{8}3x/5x,1,4x/6x,8,{16}2,4,1,6,8b,,,,
{8}6>3[8:1],,3,2<7[8:1],,7,6,5,
{8}1/4,2,3/5,6,4-8[8:1]/7<4[8:1],,4x/7x,,
{8}2x>5[8:1],,7,6v1[8:1],,4,3,2,
{4}1<5[4:1],5>1[4:1],{32}1w5[16:1],,,,,,,,,Cf,,,,,,,
{8}7x<4[8:1],,2,3v8[8:1],,8,7,6,
{8}2/5,3,4,5,2p5[8:1]/6<1[8:1],,2x/6x,,
{8}3xv8[8:1],,8,7<4[8:1],,4,3,2,
{8}1x/7x,1/7,2x/6x,2/6,{32}5x,4x,3x,2x,1x,8x,7x,6x,5x,4x,3x,2x,1x,8x,7x,6x,
{2}5b/1hx[2:1],3h[2:1],
{4}5<3[2:1],,,4w8[1:1],
{1}4x,
E
Re:MASTER
最終更新:2026年08月08日 16:46