アットウィキロゴ

スロウダウナー

アーティスト ろくろ

BPM BASIC ADVANCED EXPERT MASTER Re:MASTER
194 4 7 9+ 12 -

EXPERT MASTER Re:MASTER
譜面制作者 シチミヘルツ はっぴー -

BASIC


ADVANCED


EXPERT


MASTER

(194){1},
{16}2-5[8:1],,,,2x/6h[4:1],,,,4,,,35,,,24,,,,8,,8h[4:1],,,,2,,,35,,,46,,7-4[8:1],,,,3h[4:1]/7x,,,,5,,,46,,,57,,,,1,,1h[4:1],,,,7,,,46,,,35,,2-5[8:1],,,,2x/6h[4:1],,,,4,,,35,,,24,,,,8,,8h[4:1],,,,2,,,35,,,46,,7-4[8:1],,,,3h[4:1]/7x,,,,5,,,46,,,57,,{8},1,1h[4:1],,8,,4x/5x,,
46,,35,,{16}2h[16:3],,,3h[16:3],,,4,,,,5,,46,,,,7h[16:3],,,6h[16:3],,,5,,35,,,,46,,,,7h[16:3],,,6h[16:3],,,5,,,,4,,35,,,,3h[16:3],,,2h[16:3],,,1,,18,,,,46,,,,7h[16:3],,,6h[16:3],,,5,,,,4,,35,,,,2h[16:3],,,3h[16:3],,,4,,46,,,,35,,,,2h[16:3],,,3h[16:3],,,4,,,,5,,46,,,,6h[16:3],,,7h[16:3],,,8,,1/8<5[8:1],,,,3,,,,2h[16:3],,,3h[16:3],,,4,,,,5,,46,,,,7h[16:3],,,6h[16:3],,,5,,3>8[8:1]/5,,,,6,,,,7h[16:3],,,6h[16:3],,,5,,,,4,,35,,,,3h[16:3],,,2h[16:3],,,1,,1>4[8:1]/8,,,,6,,,,7h[16:3],,,6h[16:3],,,5,,,,4,,35,,,,2h[16:3],,,3h[16:3],,,4,,4/6<1[8:1],,,,3,,,,2h[16:3],,,3h[16:3],,,4,,{8},8,18,,34,,45,,
5>1[4:1]/6,,6,,4<8[4:1],,3,,5>1[4:1],,6,,4<8[4:1],,2,2h[4:1],,8,8,,46,,3pp1[2:1],,7,,7,,8,,8,,3/4<8[4:1],,3,,5>1[4:1],,6,,4<8[4:1],,3,,5h[4:1],,6,6,,35,35,,47,47,,26,,{16}8,1,{8}8,,2b/7b,,2-5[8:1]/6-1[8:1],,
2x/6x,,37,,1h[4:1],,4,4,3,6,1,8V64[4:1],,4V28[4:1],,8,,4,4-8[8:1],,6-3[8:1],,2V41[4:1],,7,,8,8,,1>6[4:1]/6,,Cf,,,8h[4:1],,{24}E2,B2,B3,E4,,,E8,B7,B6,{8}E6,1h[4:1],,4,4h[4:1],,6V41[8:3],,7h[8:3],,,,,7-5[8:1]/2-4[8:1],,,,8-5[8:1]/1-4[8:1],,,,2b/7b,7-4[8:1]/2-5[8:1],,2x/7x,,18,18,,7h[4:1],,5,5,6,3,8,1V35[4:1],,5V71[4:1],,1,,5,5-1[8:1],,3-6[8:1],,7V58[4:1],,2,,1,1,,3/8<3[4:1],,2,,1,{4}1h[4:3],4,4,5-8[8:1],1-4[8:1],8-5[8:1],4,
4,4,4,4,4,4,4,{8}4,5<8[8:5],{4}4,4,4,4,47,46,45,45,4,4,4,4,4,4,4,{8}4,5-1[8:5],{4}4,4,4,4,48,47,46,45,3-5[8:1],{8}8,8,7-4[8:1],,2,2,3-5[8:1],,8,8,7-4[8:1],,2,2,3-5[8:1],,8,8,7-4[8:1],,2,2,3h[4:1],,1h[4:1],,8h[4:1],,6,,6-4[8:1],,1,1,2-5[8:1],,7,7,6-4[8:1],,1,1,2-5[8:1],,7,7,6-4[8:1],,1,1,2-5[8:1],,6p4[4:3],,{1},
{4}1h[1:8],,,{24},,,E5,E6,E7,{4},,,{24},,,E5,E4,E3,{4},,,{24},,,E5,E6,E7,{4},,,{24},,,E7,E6,E5,{4},,,{24},,,E3,E4,E5,{4},,,{24},,,E8,E7,E6,{4},,,{24},,,E5,C,E1,{4},,,,5,5,5,5,4-1[4:3]/5,5,5,5,5,5,5,5,1h[4:3]/5,5,5,5,1>4[2:1]/5,5,5,5,45,,,7-4[8:1]/3-8[8:1],
3x/7x,26,8h[4:1],{8}5,5,6,3,8,1>5[4:1],,5<1[4:1],,1,,5,5-1[8:1],,2-7[8:1],,6V85[4:1],,2,,1,1,,3/8<3[4:1],,Cf,,,1-5[8:1],,1x/7-3[8:1],,4b/7x,,8h[4:1],,5,5h[4:1],,3V58[8:3],,2h[8:3],,,,,7-5[8:1]/2-4[8:1],,,,8-5[8:1]/1-4[8:1],,,,2b/7b,7-4[8:1]/2-5[8:1],,2x/7x,,1b/8b,1b/8b,,2h[4:1],,4,4,3,6,1,8<4[4:1],,4>8[4:1],,8,,4,4-8[8:1],,6-3[8:1],,1pp1[4:1],,7,,8,8,,1>6[4:1]/6,,7,,8,8h[2:1],,5,,6>1[4:1],,8,,8,8,1,,1,1-4[8:1],,8,8h[4:1],,5b>7[8:3],,6b,6b,,,,1,1,,8h[4:5],,E5,,E7,,E1,,E3,,{1}Ch[2:1],
{16}7-4[8:1],,,,3h[4:1]/7x,,,,5,,,46,,,57,,,,1,,1h[4:1],,,,5,,,46,,,35,,2-5[8:1],,,,2x/6h[4:1],,,,4,,,35,,,24,,,,8,,8h[4:1],,,,4,,,35,,,46,,7-4[8:1],,,,3h[4:1]/7x,,,,5,,,46,,,57,,,,1,,1h[4:1],,,,5,,,46,,,35,,2-5[8:1],,,,2x/6h[4:1],,,,4,,,35,,,24,,,,8,,8-5[8:1],,,,1-4[8:1],,,,8x,,,,28,,,,17,,,,6h[16:3],,,7h[16:3],,,8,,,,1,,28,,,,3h[16:3],,,2h[16:3],,,1,,17,,,,28,,,,3h[16:3],,,2h[16:3],,,1,,,,8,,17,,,,7h[16:3],,,6h[16:3],,,5,,45,,,,28,,,,3h[16:3],,,2h[16:3],,,1,,,,8,,17,,,,6h[16:3],,,7h[16:3],,,8,,28,,,,17,,,,6h[16:3],,,7h[16:3],{8},8,18,18,27,27,,5v8[8:1]/1v4[8:1],,{16},Cf,{1},,,,,,
E

Re:MASTER


名前:
コメント:

タグ:

+ タグ編集
  • タグ:
最終更新:2026年08月03日 12:40