アットウィキロゴ

終わりなき物語

アーティスト クーナ(CV 喜多村英梨)「PHANTASY STAR ONLINE 2」

BPM EASY BASIC ADVANCED EXPERT MASTER Re:MASTER
150 2 5 8 10+ 12+ -

EXPERT MASTER Re:MASTER
譜面制作者 ロシェ@ペンギン Jack -

EASY


BASIC


ADVANCED


EXPERT


MASTER

(100){1},
{8}3h[4:1],,4,3,2h[4:1]/5,,1,2,3/8h[4:1],,1,8,2v3[8:1]/7v6[8:1],,,,
4h[4:1],,5,6,7,2,3,4,5h[4:1],,6,,4h[4:1],,3,,
6h[4:1],,5,6,4/7h[4:1],,8,7,{4}1/6h[4:1],5h[4:1],4h[4:1],3,
1V35[8:1]/5V71[8:1],,1v7[8:1]/5v3[8:1],,(72)5s1[2:1]*z1[2:1],,,,
(150){16}46,,,25,,,3/7-3[8:1],,,,1,,1,,,,35,,,47,,,2-6[8:1]/6,,,,8,,{4}8,

5-1[8:1]/7,6,2/4-8[8:1],3,5p1[8:1]/7,6,2/4q8[8:1],3,
5^2[8:1]/7,6,2/4^7[8:1],3,1-5[8:1]/8-6[8:1],1-3[8:1]/8-4[8:1],1-5[8:1]/8-6[8:1],18,
2/4-8[8:1],3,5-1[8:1]/7,6,2/4q8[8:1],3,5p1[8:1]/7,6,
2/4^7[8:1],3,5^2[8:1]/7,6,{16}78,,,1-6[8:1]/2,,,3,,3,,,,8b,,,,

2h[16:3],,,4h[16:3],,,6,,6p2[8:1],,,,8,,7,,7h[16:3],,,5h[16:3],,,3,,3q7[8:1],,,,1,,,,
3h[16:3],,,4h[16:3],,,5,,6,,5,,4,,3,,12,,,78,,,45,,45,,1,,1,,7,5,
6h[16:3],,,4h[16:3],,,2,,2q6[8:1],,,,1,,3,,3h[16:3],,,5h[16:3],,,7,,7p3[8:1],,,,8,,,,
1h[16:3],,,2h[16:3],,,3,,8h[16:3],,,7h[16:3],,,6,,45,,,38,,,16,,1v3[8:1]/6v8[8:1],,,,,,,,

5h[8:1]/6h[8:1],,,3h[16:5]/8h[16:5],{8},,,3^8[8:1]/8^5[8:1],,38,,4,25,,6,5,47,,
3h[8:1]/4h[8:1],{16},1h[16:5]/6h[16:5],{8},,,1^4[8:1]/6^1[8:1],,16,,5,47,,3,4,25,,
45,3,2,3,45,6,7,6,45,3,24,3,45,6,57,6,
45,3,14,2,45,6,58,7,45,{16}3,4,2,,6,5,7,,3,4,1,,6,5,
8,,,26,,,48,,15,,,37,,,1pp4[2:1]/5pp8[2:1],,{4},,,1b,

{16}2h[16:3],,,4h[16:3],,,3,,1-6[8:1]/2-5[8:1],,,,12,,,,7h[16:3],,,8,{8}7,6,5-2[8:1]/6-1[8:1],,56,,
3h[4:1],,4,5,6h[4:1],8,3h[4:1],1,7h[16:3],{16},5h[16:3],{8},6,7-4[8:1]/8-3[8:1],,78,,
1h[2:1]/6h[2:1],,,,,16,34,,3h[2:1]/8h[2:1],,,,,38,{4}56,
2-7[8:1]/3-6[8:1],23,6-3[8:1]/7-2[8:1],67,4-8[8:1]/5-7[8:1],4-2[8:1]/5-1[8:1],4w8[8:1]/5,4b,
{16}7h[16:3],,,5h[16:3],,,6,,7-4[8:1]/8-3[8:1],,,,78,,,,2h[16:3],,,1,{8}2,3,3-8[8:1]/4-7[8:1],,34,,
6h[4:1],,5,4,3h[4:1],1,6h[4:1],8,2h[16:3],{16},4h[16:3],,,3,,{4}1-6[8:1]/2-5[8:1],12,
3^8[4:1],8^5[4:1],5^2[4:1],2^7[4:1],7^4[4:1],4^1[4:1],1-5[8:1],8-4[8:1],
2q7[8:1],,8-3[8:1],1-6[8:1],1b,{16},,6,,5,,3,4,3,,27,,
6h[16:3],,,8h[16:3],,,7,,5-2[8:1]/6-1[8:1],,,,56,,,,2h[16:3],,,1,2,,3,,3-8[8:1]/4-7[8:1],,,,34,,,,
7h[4:1],,,,8,,1,,2h[4:1],,4,,7h[4:1],,5,,3h[16:3],,,1h[16:3],,,8,,{4}1^6[8:1]/8^3[8:1],18,
5^2[4:1],2^7[4:1],7^5[8:1],3,4^7[4:1],7^2[4:1],2^4[8:1],6h[2:1],
8-4[8:1],,1^6[8:1]/6,1b/8^3[8:1],6/8b,{16},,34,,56,,4,5,4,,4-1[8:5]/5-8[8:5],,
{1}45,{16}12,,,7/8-3[8:1],,,6,,{4}6,1b/8b,

3/4-8[8:1],2,5-1[8:1]/6,7,3/4q8[8:1],1,5p1[8:1]/6,8,
3/4^7[8:1],8,5^2[8:1]/6,1,1-3[8:1]/8-4[8:1],1-5[8:1]/8-6[8:1],1-3[8:1]/8-4[8:1],18,
5-1[8:1]/6,7,3/4-8[8:1],2,5p1[8:1]/6,8,3/4q8[8:1],1,
5^2[8:1]/6,1,3/4^7[8:1],8,{16}2b-5[16:1],,,6b-1[16:1],,,4,,4b-7[16:1],,,8b-3[16:1],,,1h[56:247],,
(70){4},2bqq6[1:1],,,{1},,,E

Re:MASTER


名前:
コメント:

タグ:

+ タグ編集
  • タグ:
最終更新:2026年10月16日 21:43