BASIC
ADVANCED
EXPERT
MASTER
(125)
{4},,,
{16}2,7,3,6,4x/5x,,6,5,6,,4,5,,3,4,,{8}25,47,45,{16}3,4,3,,5,4,,6,5,,
{16}47,,25,,1,5,2,5,3,5,4,5,6,5,7,5,8,5,1,5,2,2h[16:3],,1,1,,8,8<4[16:3],,4,4,,
{8}3,2,4x/5x,{16}3,4,3,,5,4,,6,5,,{8}47,25,45,{16}6,5,6,,4,5,,3,4,,
{16}25,,47,,8,4,7,4,6,4,5,4,3,4,2,4,1,4,8,4,7,7h[16:3],,5,5,,4,5,,45,45,,
{8}18,27,6h[8:5],4,{16}5,,,7,,,{8}2,3/7h[8:1],3,6h[8:5],4,{16}5,,,7,,,3,,
{8}4-1[8:1]/7h[8:1],4,4x/6h[8:5],,2,2,,1,2/7h[8:1],3,4-7[8:1]/6h[4:1],,4x,,5-1[8:1]/6-8[8:1],,
{8}5x/6x,,6h[8:5],4,{16}5,,,7,,,{8}2,3/7h[8:1],3,6h[8:5],4,{16}5,,,7,,,3,,
{8}2^7[8:1]/7h[8:1],2,2x/6h[8:5],,5,5,,3,2/7h[8:1],,1/6h[2:1],1,,7,7-2[8:1],,
{8},,3h[8:5],5,{16}4,,,2,,,{8}7,6/2h[8:1],6,3h[8:5],5,{16}4,,,2,,,6,,
{8}2h[8:1]/5V38[4:1],5,5x/3h[8:5],,,7,6,5,4/2h[8:1],5,3h[4:1]/6^3[8:1],,6x,,1h[4:1]/6^1[8:1],,
{8}6x,,3h[8:5],5,{16}4,,,2,,,{8}7,6/2h[8:1],6,3h[8:5],5,{16}4,,,2,,,6,,
{8}3qq1[8:1]/7qq5[8:1],37,3x/7x,,,2/8<4[8:1],,2/8x,1-4[8:1]*-6[8:1],,1x,,27,{16}1,8,2-6[8:1],,6-2[8:1],,
{8},,5,5h[4:1],,B6,B3,8,7,6,4,4h[4:1],,B3,B6,1,
{8}2,3,5,5h[4:1],,B6,B3,8>5[8:3],7,6h[8:7],,,,,1-5[8:1],,
{8},,3,3,24,{16}5,4,,6,5h[4:1],,{8}8,7,6,6,57,{16}4,5,,3,4h[4:1],,
{8}1,2,3-7[8:1],3,1-5[8:1],1,4-8[8:1],4,7,6,45,36,7/2>8[4:1],18,2x/7x,,
{16}1b,,,,2xV48[4:1],1,2,1,2,,5,5,,6,6,,18,,35,,7V51[4:1],8,7,8,7,,4,4,,2,2,,
{16}45,,,,2V48[4:1],1,2,1,2,,5,5,,6,6,,78,,12,,{32}E2/6xh[8:1],B1,B8,E8,,,,,E6/2xh[8:1],B5,B4,E4,,,,,E2/6xh[8:1],B1,B8,E8,,,,,
{32}2b/E6,B5,B4,E4,,,,,{16}7xV51[4:1],8,7,8,7,,4,4,,3,3,,18,,46,,2V48[4:1],1,2,1,2,,5,5,,7,7,,
{16}45,,,,7V51[4:1],8,7,8,7,,4,4,,3,3,,12,,78,,{32}E8/3xh[8:1],B8,B1,E2,,,,,E4/7xh[8:1],B4,B5,E6,,,,,E8/3xh[8:1],B8,B1,E2,,,,,
{32}7x/E4,B4,B5,E6,,,,,{16}5/6h[1:1],,7,7,,,{8}1<4[4:1],1,,,,3h[1:1],{16}2,2,,,{8}1,8-4[8:1],,
{8}8x>5[4:1],,8x,,,3h[8:1]/6h[8:1],,45,36,27,1-4[8:1]/8-5[8:1],,1x/8x,,Chf[2:1],,
{8},,8b,,7,7h[8:3],,6,5V37[4:1],4,3h[8:3],,,8^5[8:1],,4,
{16}4,,2,4,3,,,5/3qq5[16:5],,,{2}3x/6xh[8:3],{16}7,5,6,,,4/6z2[16:5],,,{8}6x/3xh[8:3],,,
{8},,57,{16}3,4,2,2,5,4,7,7,,68,,1,8,,{24}1x,2,3,8x,7,6,4xh[8:1],,,5xh[8:1],,,2x,3,4,7x,6,5,
{8}3<1[4:1],,3x/7h[4:1],,,{16}6,5,6,,3,4,,6,5,,4x,4,8,3x,3,7,2x,2,6,1x,1,5,
{4}8x>5[16:7],6h[4:14],,,,E8,,C,
{8},,E4,,,2,,3,4,5,7h[4:1],,,,5-1[8:1],,
{8},,5/3h[2:1],5,5,5,6,6,6/3h[8:1],6,7/3h[2:1],7,7,7,8,8,
{8}8/3h[8:1],8,1V37[4:1]/3h[2:1],,,,,8,7/3h[8:1],6,4/5-1[8:1],6,4-8[8:1],3,5-1[8:1],6,
{4}4<3[2:1],8b,,,{16}3,6,3,6,1x,1,7,7,8V26[16:3],,5,5,,7,7,,
{16}57,,34,,8,8,2,2,1V73[16:3],,4,4,,2,2,,24,,56,,1,1,7,7,8V26[16:3],,5,5,,7,7,,
{32}8,,,,17,,,,E2/6xh[8:1],B1,B8,E8,,,,,E6/2xh[8:1],B5,B4,E4,,,,,E2/6xh[8:1],B1,B8,E8,,,,,2b/E6,B5,B4,E4,,,,,{16}8x,8,2,2,1V73[16:3],,4,4,,2,2,,
{16}24,,56,,1,1,7,7,8V26[16:3],,5,5,,7,7,,57,,34,,8-4[8:1],17,,3,3,,1-5[8:1],28,,6,6,,
{32}8,,,,17,,,,E8/3xh[8:1],B8,B1,E2,,,,,E4/7xh[8:1],B4,B5,E6,,,,,E8/3xh[8:1],B8,B1,E2,,,,,7x/E4,B4,B5,E6,,,,,{16}28,,7/1pp4[8:3],17,,6,6,,5,,6,,
{8}7,58,17,{16}2/8qq5[8:3],28,,3,3,,{8}4,3,2,14,35,46,{16}2,4,3h[8:1],,7,5,6h[8:1],,
{16}1,3,2h[8:1],,8,1,8,1,2-4[8:1]/6-4[8:1],,,,{4}2x-8[8:1]/6x-8[8:1],2x/6x,3bV51[16:27]/7bV51[16:27],,,
{4},,,,,
E
Re:MASTER
最終更新:2026年09月21日 12:17