アットウィキロゴ

ファンタジーゾーン OPA-OPA! -GMT remix-

アーティスト Hiro(SEGA)「ファンタジーゾーン」

BPM EASY BASIC ADVANCED EXPERT MASTER Re:MASTER
142 2 4 8 10+ 13 -

EXPERT MASTER Re:MASTER
譜面制作者 Jack mai-Star -

EASY


BASIC


ADVANCED


EXPERT


MASTER

(142){4},,,,,{16},,1,8,,,,,1b,,,,
1h[8:3],,,2,,,8,,8h[8:3],,,7,,,1,,,,7,,8,,2,1,,3,,5,4,,6,,
4h[8:3],,,3,,,5,,5h[8:3],,,6,,,4,,,,2,,1,,7,8,,6,,4,5,,3,,
7h[8:3],,,6,,,5h[2:1],,1,,,8,,,7,,,,3,,7,,5,6,,1-5[16:1],,1,,,,,
2h[8:3],,,3,,,4h[2:1],,7,,,8,,,1,,34,,,56,,,1v6[16:3]/8v3[16:3],,,,,,,,,,
34,,34,25,,,56,,56,47,,,18,,18,18,
{4}3,4,5,6,1q7[8:1],,7q5[8:1],,
7,8,1,2,5q3[8:1],,3q1[8:1],,
{16}1,,,8,,,7h[16:5],,1,,,2,{4},1q7[4:1],7q5[4:1],5q3[4:1],,
{16}5,,,4,,,3h[16:5],,5,,,6,,,,,37,,,48,,,15,,,26,,,2,1,8,7,
{12}3,4,3,6,5,6,1,6,3,8b,,,

{16}1,,6,5,6,,3,4,3,,7,6,7,,2,3,2,,7,8,7,,2,1,2,,,,,,78,,
12,,,34,,56,,,34,,,12,,56,,,78,,,1b/2b,,,,,,,2,,4,,6,,
8,,3,4,2,,6,5,7,,2,4,3,,7,5,6,,1,8,7,,8,1,{4}2,1,
1s5[8:1]/8^5[8:1],,1^4[8:1]/8z4[8:1],,1b/8b,3b/4b,{16}6,5,6,5,7,4,6,5,
8,,2,5,2,,7,4,7,,1,4,1,,8,5,8,,4,6,2,,5,3,7,,,,,,56,,
12,,,34,,78,,,34,,,56,,12,,,47,,,5b/6b,,,,,,,5,,3,,7,,
1,,4,5,4,,7,8,7,,2,1,{4}2,8h[4:1],7h[4:1],6h[4:1],5-1[8:1],
4-8[8:1],2-5[8:1],7-4[8:1],,{12}3,4,3,6,5,6,{16}2,,7,,1b,8b,{8},

1h[4:1],2,8h[4:1],7,1h[4:1],2,8h[4:1],7,1h[16:3],{16},8b,,,,,,,7,8,1,2,,5p3[16:5],
,4,,,,,,,,,2,1,8,7,,8q2[16:5],,1,,,,,,,,,1,8,3,6,{8},
4h[4:1],3,5h[4:1],6,4h[4:1],3,5h[4:1],6,4h[16:3],{16},5b,,,,,,,5,4,5,4,,5,
2,1,,3,7,8,,6,1,8,,27,27,,45,,1,8,2,7,1,8,2,7,4,6,3,5,4,5,{8}3b,
2h[8:1],3,2h[8:1],1,2h[8:1],3,2h[8:1],1,2h[16:3],{16},8b,,,,,,,2,3,4,5,,7p5[16:5],
,6,,,,,,,,,5,6,7,8,,3p5[16:5],,4,,,,,,,,,5,4,5,4,{8},
7h[8:1],6,7h[8:1],8,7h[8:1],6,7h[8:1],8,7h[16:3],{16},1b,,,,,,,7,4,5,2,,8,
1,1,,1,3,3,,3,5,5,,5,7,,7,,2,2,,2,8,8,,8,6,6,,6,4b,,,,

1^6[8:1],,2,,2,,3,3,,6,,4,5,,,,8^3[8:1],,7,,7,,6,6,,3,,5,4,,,,
1^6[8:1],,2,,3,,2,2,,7,,1,8,,,,8^3[8:1],,7,,6,,5,,3,4,2,5,1,6,7,8b,
7-4[8:1],,4,,7,,2,2,,4,,8,8,,2,,2-5[8:1],,5,,2,,7,7,,5,,1,1,,6,,
6^1[8:1],,1,,6,,3,3,,6,,4,5,,3,,3^8[8:1],,8,,3,,6,,4,5,3,6,2,7,1,8,
{12}1,3,5,7,2,4,6,8,1,{4}8b,

8p2[4:1],2p4[4:1],4p6[4:1],,{16}8h[16:3],,,7b,,,,,8h[16:3],,,1b,{4},
1p3[4:1],3p5[4:1],5p7[4:1],,{16}1h[16:3],,,8b,,,,,2b,2,2,2,7b,7,7,7,
{4}1-6[4:1],6-2[4:1],2p7[4:1],,{16}6h[16:3],,,7b,,,,,6h[16:3],,,5b,{4},
8-3[4:1],3-6[4:1],6<3[8:1],,{16}12,,,56,,,12,,,78,,,3b/4b,,,,
34,,25,25,,,78,,16,16,,,3b/7b,,,,15,,15,26,{1}3p6[2:1]/7p2[2:1],,,E

Re:MASTER


名前:
コメント:

タグ:

+ タグ編集
  • タグ:
最終更新:2026年10月16日 21:42