アットウィキロゴ

このピアノでお前を8759632145回ぶん殴る

アーティスト SLAVE.V-V-R

BPM EASY BASIC ADVANCED EXPERT MASTER Re:MASTER
200 3 4 9 11 13 -

EXPERT MASTER Re:MASTER
譜面制作者 はっぴー はっぴー -

EASY


BASIC


ADVANCED


EXPERT


MASTER

(200){8}
6,5,4,3,,5,,6,5,4,3<6[8:1],,,,,,6,5,4,3,,5,,6,5,4,3,,45,,,,
2-4[8:1]/5,,26,,2-4[8:1]/5,,27,,2-4[8:1]/8,,25,5,2-4[8:1]/5,,27,,
7-5[8:1]/4,,73,,7-5[8:1]/4,,72,,72,,,{16}4,5,4,5,4,5,4,,,,

{8}
6/2-4[8:1],2,5-7[8:1],5,2-4[8:1],2,5-7[8:1],5,
2-4[8:1],2,5-7[8:1],5,2,2,25,,
3/7-5[8:1],7,4-2[8:1],4,7-5[8:1],7,4-2[8:1],4,7,7,4,4,5,5,26,,
7/1-3[8:1],1,6-8[8:1],6,1-3[8:1],1,6-8[8:1],6,
1-3[8:1],1,6-8[8:1],6,1,1,16,,
2/8-6[8:1],8,3-1[8:1],3,8,8,83,,18,18,27,36,45,,,,

{8}
6h[8:5],4,4,,5,5,,47,,36,,25,1,1-5[4:1],,8h[8:5],,,,,,,,4,4,5,5,,36,,45,,
3h[8:5],5,5,,4,4,,52,,63,,74,8-5[4:1],,1>8[8:5],,,,,,,,,5,5,4,4,,36,,45,,

{16}
5,,5,,36,,,36,4,,,,36,,5,,,,5,,36,,,,45,,,,36,,,,
5,,5,,74,,,74,6,,,,74,,5,,,,5,,74,,,,65,,,,74,,,,
4,,4,,25,,,25,3,,,,25,,4,,,,4,,25,,,,34,,,,25,,,,
5,,5,,36,,,36,{4}4,3/6<1[4:1],5,4<6[4:1],8,8,

{8}
7<4[4:1],,,2<7[4:1],,,5>2[4:1],,,,1,,2,,3,,
2>5[4:1],,,7>2[4:1],,,4<7[4:1],,,,8,,7,,6,,
5-8[8:1],,1-4[8:1],,6-3[8:1],,2-7[8:1],,8-5[8:1],,4-1[8:1],,6-3[8:1],,1,,
27,2h[4:1]/7h[4:1],,,,,45,45,36,36,,,4-1[8:1],,,,

{16}
1,8,1,8,1,8,1,8,{8}27,2-5[8:1]/7,,8-4[8:1],,2-7[8:1],,6-2[8:1],,4-1[8:1],,8,
8<3[4:1],,1,1,1,1,24,5,46,3,24,1,1-5[8:1]/8-4[8:1],,18,,
36,27,36,27,36,27,36,4>1[8:1]/5,,8,8<5[8:1],,4,4>7[4:1],,6,
,5,5,,46,,25,25,3,4,5,6,2-5[8:1]/7-4[8:1],,27,,

{16}
1,8,1,8,1,8,1,8,{8}72,7-4[8:1]/2,,1-5[8:1],,7-2[8:1],,3-7[8:1],,5-8[8:1],,1,
1>6[4:1],,8,8,8,8,75,4,53,6,75,8,8-4[8:1]/1-5[8:1],,81,,
36,27,36,27,36,4>1[8:1]/5,,8<5[8:1],,1-4[8:1],,5,5,4>7[4:1],,6,
,5,5,,46,,25,25,3,4,5,6,27,,45,,

{8}
2>5[8:1],,7,7>2[8:1],,3,,4h[8:3],,,8z4[4:1],,3,,3,,
1b/5b,3b/4b,,1b/5b,3b/4b,,1b/5b,3b/4b<1[8:5],{1},

{8}
6,5,4,3,,5,,6,5,4,3,,{16}35,,,46,,,35,,{8}6,5,4,3,,5,,6,5,4,3,,36,,36,,
45,6,5,6,35,6,7,6,45,6,5,6,35,6,7,6,
45,6,5,6,35,6,7,6,45,6,5,6,{16}4,5,4,5,4,,,,

{8}
47,4h[8:5]/7h[8:5],,,,,,,52,5h[8:5]/2h[8:5],,,,,,,36,36,,,{4}18,4>1[4:1]/5<8[4:1],,,2h[4:9]/7h[4:9],,,,,,,,,,

{16}
1,8,1,8,1,8,1,8,{8}27,2-6[8:1]/7,,8-5[8:1],,3-7[8:1],,5-8[8:1],,1-4[8:1],,8,
8<3[4:1],,1,1,1,1,25,6,47,3,25,1,1-5[8:1]/8-4[8:1],,18,,
36,27,36,27,36,27,36,4>1[8:1]/5,,8,8<5[8:1],,4,4>7[4:1],,6,
,5,5,,46,,25,25,6,7,8,1,2-5[8:1]/7-4[8:1],,27,,

{16}
1,8,1,8,1,8,1,8,{8}72,7-4[8:1]/2,,1-5[8:1],,7-2[8:1],,3-7[8:1],,5-8[8:1],,1,
1>6[4:1],,8,8,8,8,47,3,25,6,47,8,1-5[8:1]/8-4[8:1],,18,,
36,27,36,27,36,4>1[8:1]/5,,8<5[8:1],,1-4[8:1],,5,5-8[8:1],,4>7[4:1],,

5,,5,,6,5,4,35,,56,4/7-3[8:1],,1-5[8:1],,8,,
2,3,4,7,6,5,6/3-7[8:1],,8-4[8:1],,2-5[8:1],,8,8,27,,
7,5,6,2,4,3,4,25,,6,57,,2,1,8,27,,46,46,,57,,35,35,,{16}4,5,4,,6,,3,,3,,27,,,,

{16}
1,8,1,8,2,7,2,7,{8}36,27,8-4[8:1],8,
1-5[8:1],1,7-2[8:1],7,3-7[8:1],3,5-8[8:1],5,
1>6[4:1],1,8,8,8,8,37,2,15,6,37,8,1-5[8:1]/8-4[8:1],,18,,
36,27,36,27,36,4>1[8:1]/5,,8<5[8:1],,1-4[8:1],,5,5,4>7[4:1],,6,
,5,5,,46,,25,25,3,4,5,6,27,,45,,

{8}
2>5[8:1],,7,7>2[8:1],,3,,4h[8:3],,,8z4[4:1],,3,,3,,
1b/5b,3b/4b,,1b/5b,3b/4b,,1b/5b,3h[4:7]/4h[4:6],{1},,

{8}
6,5,4,3,,5,,6,5,4,3,,{16}35,,,46,,,35,,{8}6,5,4,3,,5,,6,5,4,3,,45,,4,5,
6,5,4,3,,5,,6,5,4,3,,{16}35,,,46,,,35,,{8}6,5,4,3,,5,,6,5,4,3,,45,
E




Re:MASTER


  • 追加しました。配置スライド長さ等修正点ありましたらよろしくお願いします...! -- NaTaKa (2026-07-07 03:12:46)
名前:
コメント:

タグ:

+ タグ編集
  • タグ:
最終更新:2026年10月03日 22:17