| アーティスト |
SOUND HOLIC feat. Nana Takahashi |
BASIC
ADVANCED
EXPERT
MASTER
(160){8}1/8,2/7,E3/E4/E7/E6,,2h[8:5],E5/B4/B5,,8,,7h[8:1],C/B1/B8,,2h[8:1],E5/B4/B5,,,1/8,2/7,E3/E4/E7/E6,,2h[8:3],E5/B4/B5,,8,{16}8h[16:3],,,7h[16:3],,,6-3[8:1],,6,,{4},{16},,3,4,3,6,5,6,2,4,2,7,5,7,1b,,,2b/8b,,,3b/7b,,6,5,6,3,4,3,7,5,7,2,4,2,8b,,,7b/1b,,,6b/2b,,3,4,3,7,5,7,2,3,2,7,5,7,1b,,,2b/8b,,,3b/7b,,
6,5,6,2,4,2,7,6,7>5[4:1],,3,,2hx[4:1],,,,,,{8},1x/6x,,1/2,,3,5>2[8:1]/7,,8,8<5[8:1],,3,3>8[8:1],,7,7,6>3[8:1],,2,2,1,7/8,6,1/8,2,{16}6,6,5,5,4,4,3,3,7,7,8,8,1,1,2,2,{8}6x,,5/7,,2,1<6[8:1]/3,,4,4>1[8:1],,7,7<4[8:1],,3,3,2,{16}8,7,6,5,1,2,3,4,7,6,5,4,1,2,3h[4:1],,,,5,4,6h[8:3],,,,,,3,,4/8,,2b/6b,,
{8},4,5,6,2-5[8:1],5-2[8:1],,,,5,4,3,7-4[8:1],4-7[8:1],,,,3,4,5,3,2,1,8-3[8:1],,2-5[8:1],,7-4[8:1],,3,,2x/8x,,2,3/4,5,2p5[8:1],5>2[8:1],,,,7,6/5,4,7q4[8:1],4<7[8:1],,,,3,1/2,8,2,3/4,5,2-5[8:1],,7-4[8:1],,1-6[8:1],,8b,,,{16}7x/E3,,,8/E4,,,1/E5,,2x/E7,,,1/E6,,,8/E5,,7x/E3,,,8/E4,,,1/E5,,1hx[4:1]/E7,,,,8,,,,3x/E7,,,4/E8,,,5/E1,,6x/E3,,,5/E2,,,4/E1,,3x/E7,,,
4/E8,,,5/E1,,E3/6x>3[8:1],,,,,,,,7x/E3,,,8/E4,,,1/E5,,2x/E7,,,1/E6,,,8/E5,,7x/E3,,,8/C,,,1/E7,,2h[4:1]/7,,,,1,,8,,7x/E3,,,8/E4,,,1/E5,,2x/E7,,,
1/C,,,8/E3,,{4}7hx[4:1],C/B4/B5,2-5[8:1]/7-4[8:1],2x/7x,
{8}2,3-7[8:1]/6,,3x<6[8:1]/7x,,3x>8[8:1]/7x,,3x/8x,,7,5/6,4,3-7[8:1]/6-4[8:1],,3b/6b,,2,1/8,7,5/6,4,2/3,1-5[8:1],8-6[8:1],1x-3[8:1],8x-4[8:1],1x-5[8:1],8x,1b,,2b/7b,,1/8,2-6[8:1],,2/7-1[8:1],,3-5[8:1]/7,,6-2[8:1]/3,,1,1,8,7-3[8:1]/1-5[8:1],,1b/7b,,1h[4:1],8,7h[4:1],8,{16}2,,5,4,5>6[2:1],,2,,{4}2h[2:1],,,{8}2/7,4,5,3/6-2[8:1],,2x/6x>3[8:1],,6x<1[8:1]/2x,,6x/1x,,2,4/3,5,6-2[8:1]/3-5[8:1],,6b/3b,,7,8/1,2,4/3,5,7/6,8-4[8:1],1-3[8:1],8x-6[8:1],1x-5[8:1],8x-4[8:1],1x,8b,,7b/2b,,8/1,7-3[8:1],,7/2-8[8:1],,6-4[8:1]/2,,3-7[8:1]/6,,8,8,1,2-6[8:1]/8-4[8:1],,8b/2b,,8h[4:1],1,2h[4:1],1,{16}7,,4,5,4<3[2:1],,8,,{4}8hx[2:1],,,2b/7b,
{8}3x/8x,,7/8,,6,2/4<7[8:1],,1,1>4[8:1],,6,6<1[8:1],,2,2,3<6[8:1],,7,7,8,1/2,3,1/8,7,{16}3,3,4,4,5,5,6,6,2,2,1,1,8,8,7,7,{8}3x,,2/4,,7,6/8>3[8:1],,5,5<8[8:1],,2,2>5[8:1],,6,6,7,{16}1,2,3,4,8,7,6,5,2,3,4,5,8,7,6h[4:1],,,,4,5,3h[8:3],,,,,,6,,1/5,,3b/7b,,
{4}1/8,E4/E6/B4/B5,8/7,E3/E5/B3/B4,2/1,E5/E7/B5/B6,1/8,E4/E6/B4/B5,8/7h[4:1],B5/E6/B6,1/2h[4:1],B4/E4/B3,1/8,3p6[4:1]/7>2[4:1],,,{8}1/8,2/7,E4/E6/B4/B5,2/7,1/8,2/7,E4/E6/B4/B5,1,8/7,1/6,E3/E5/B3/B4,1/6,8/7,1/6,E3/E5/B3/B4,8,2/1,3/8,E5/E7/B5/B6,2,1/8,2/7,
E4/E6/B4/B5,2/7,1x-5[8:1]/8x-4[8:1],,{16}1b/8b,Cf,,,{8},,,5,
{8}4,3/6-2[8:1],,2x/6x>3[8:1],,2x/6x<1[8:1],,1x/6x,,2,1/8,7,2-5[8:1]/6-1[8:1],,6b/2b,,2,1/8,7,5/6,4,2/3,1-5[8:1],8-6[8:1],1x-3[8:1],8x-4[8:1],1x-5[8:1],8x,1b>4[8:1]*<6[8:1],,1b,,1/8,7-3[8:1],,2-8[8:1]/7,,2/6-4[8:1],,3-7[8:1]/6,,8,8,1,2-6[8:1]/8-4[8:1],,2b/8b,,8h[4:1],1,2h[4:1],1,{16}7,,3,4,3<2[2:1],,7,,{4}7h[2:1],,,{8}2/7,4,5,6/3-7[8:1],,7x/3x<6[8:1],,7x/3x>8[8:1],,8x/3x,,7,8/1,2,7-4[8:1]/3-8[8:1],,3b/7b,,7,8/1,2,4/3,5,7/6,8-4[8:1],1-3[8:1],8x-6[8:1],1x-5[8:1],8x-4[8:1],1x,8b<5[8:1]*>3[8:1],,8b,,8/1,2-6[8:1],,7-1[8:1]/2,,7/3-5[8:1],,6-2[8:1]/3,,1,1,8,7-3[8:1]/1-5[8:1],,7b/1b,,1h[4:1],8,7h[4:1],8,{16}2,,6,5,6>7[2:1],,1,,{4}1hx[2:1],,,2b/7b,
{8}1x/6x,,1/2,,3,5>2[8:1]/7,,8,8<5[8:1],,3,3>8[8:1],,7,7,6>3[8:1],,2,2,1,7/8,6,1/8,2,{16}7,7,8,8,1,1,2,2,6,6,5,5,4,4,3,3,{8}7x,,6/8,,2,1<6[8:1]/3,,4,4>1[8:1],,7,7<4[8:1],,3,3,2,{16}8,7,6,5,1,2,3,4,7,6,5,4,1,2,3h[4:1],,,,5,4,6h[8:3],,,,,,3b,,4b/8b,,2b/6b,,E
Re:MASTER
- MASTER譜面を追加しました。修正等ありましたらよろしくお願いします。 -- Sugar (2026-09-05 22:58:29)
最終更新:2026年09月05日 22:58