アットウィキロゴ

アンバークロニクル

アーティスト しーけー feat.ricono

BPM BASIC ADVANCED EXPERT MASTER Re:MASTER
192 5 7+ 11 13 -

EXPERT MASTER Re:MASTER
譜面制作者 鳩ホルダー カマボコ君 -

BASIC


ADVANCED


EXPERT

(192){1},{4}3,3,2/4,4/5,6,6,5/7,4/5,2,1/2,7,7/8,6,5/6,4/7,,7,7,6/8,1/8,2,2,3/1,8/1,2/7,2/7,3/6,3>6[2:1]/6,,,,,

{4}6h[1:2],,4,4,5,5,4,,3h[1:2],,5,5,4,4,5,,6h[1:2],,4,4,5,5,4,,3,3/4,6,5/6,4h[4:1]/5h[4:1],{8},4x/5x,,3bx/6bx,,,{4}3,3/4,6,5/6,7,7/8,2/6,3/4,5,5/6,4,3/4,2,1/2,7/3,5/6,4h[4:1],3h[4:1],2h[4:1],1h[4:1],8h[4:1],7h[4:1],6h[4:1],5,4h[4:1]/5h[4:1],{8},3x/6x,,2x/7x,,1bx>4[8:3]/8bx<5[8:3],{1},{4}2-5[4:1],,,8,8-5[4:1],,,1,1-4[4:1],,,7,5/6,5/6,4/7,,7-4[4:1],,,1,1-4[4:1],,,8,8-5[4:1],,,2,4/3,4/3,5/2,,2<7[8:3],,,6,6>3[8:3],,,2,2q7[8:3],,,8,1/8,1/8,2/7,,5/6,5/6,7/8,7/8,1/2,1/2,3/4,3/4,2/5,4/7,3/6,{8}4/5,4/5,,3/6,3h[2:1]/6,,,,,,E6,E5,E4,,{4},1b/8b,

{8}5/6,,2/4,2/4-8[8:1],,1>7[8:3],,,,,,8,8,,1/2,,4/3,,7/5,7/5-1[8:1],,8<2[8:3],,,,,,1,1,,{2}8-4[8:1]/7,1-5[8:1]/2,8-4[8:1]/7,1-5[8:1]/2,{4}1/8,{8}7,7,5,5,4,4,2,2,,1/8,{4}1-4[4:1]/8-5[4:1],,,{8}4/3,,7/5,7/5-1[8:1],,8<2[8:3],,,,,,1,1,,8/7,,5/6,,2/4,2/4-8[8:1],,1>7[8:3],,,,,,8,8,,{4}1/8,2/6,3/4,3/7,5/6,3/4,1/2,7/8,5/6,3/4,{8}2/5,2/5,,5w1[2:1]b/6,{4},,,,1b/8b,

{4}7h[2:1],5,5h[2:1],4,4h[4:1],{8}2,2,,1/2,1/2,,{4}2h[2:1],4,4h[2:1],5,5h[4:1],{8}7,7,,8/7,8/7,,{1}1h[4:3]/6z2[2:1],3h[4:3]/8z4[2:1],{8}4x/5x,,,2x-6-4-8[8:7]/7hx[8:9],{2},,,{8}1x/8x,,,7x-3-5-8[8:7]/2hx[8:9],{2},,,{8}1,1,2,2,3,3,4,4,5,5,6,6,7,7,8,8,1,2,3,4,5,6,7,8<1[8:7]b/1>8[8:7]b,{1},,

{1}B8/B7,B5/B6,B4/B3,B1/B2,E1,E2/E8,Ch[8:7],,{4}2/7,3/6,4/5,{8}4/5,4-1[8:3]/5-8[8:3],{4},,,1b/8b,{8}1/2,,7/8,7/8-4[8:1],,5<3[8:3],,,,,,4,4,,5/6,,8/7,,2/1,2/1-5[8:1],,4>6[8:3],,,,,,5,5,,{2}7-4[8:1]/8-4[8:1],2-5[8:1]/1-5[8:1],7-4[8:1]/8-4[8:1],2-5[8:1]/1-5[8:1],{4}1/8,{8}3,3,1,1,8,8,6,6,,4/5,4-1[4:1]/5-8[4:1],,,,,,8/7,,2/1,2/1-5[8:1],,4>6[8:3],,,,,,5,5,,4/3,,1/2,,7/8,7/8-4[8:1],,5<3[8:3],,,,,,4,4,,5/6,,{4}1/8,3/4,1/8,5/6,1/8,2/3,4/5,6/7,1/8,{8}3/4,3/4,,2-5[4:1]/8-5[4:1],,,,,,3/7,3/7,,1b/8b,,

{8}1-5[8:1],,7,7-3[8:1],,,,1-6[8:3]/2-5[8:3],,,,,,,5b/6b,,4-8[8:1],,6,6-2[8:1],,,,3,,3/4,3/4,,2b/5b,,,,5/6,,1/8,1/8,,3/4,,4-1[8:3]/5-8[8:3],{4},,,2b/7b,{1}3qq5[4:3]b/6pp4[4:3]b,{2},Cf,{4}2/7,2/7,1/3,1/8,2/7,2/7,6/8,1/8,3,2/4,6,5/7,8,1/7,2/6,,5/6,7/8,5/6,4/5,4/3,2/1,4/3,5/4,3/6,3/6,2/7,1/8<1[8:5],{1},{4}B8,B7,B6,B5,B4,B3,B2,B1,C,
E

MASTER

(192){8},,,,,4/5,4/5,,6-1[8:1],,5,5,4>1[8:1],,6,7,7-4[8:1],,3-8[8:1],,5-1[8:1],,4,,3-8[8:1],,4,4,5<8[8:1],,3,2,2-5[8:1],,6-1[8:1],,4-8[8:1],,5,,6-1[8:1],,5,5,4>1[8:1],,6,7,7-4[8:1],,3-8[8:1],,5-1[8:1],,4,,3-8[8:1],,4,4,5<8[8:1],,3,2,1-4[8:1],,5,6h[4:1],,4,4,,

{4}6,6,6,6,{24}6/E5,B4,,,,,{4}6,6,6,4h[8:5]/6,6,{8}6,,6,E5,6,,6,E4,6/B3,B2,6,,{4}4xqq5[4:3]/6,6,6,6,6,{8}6,E5,6,E4,6,,6/4h[2:1],,6,,6,,3/5,,{16}2/6,,7,1,7,,2-8[8:1]/6,,,,4b,,4b,,,,{8}6h[4:1],,8,8h[4:1],,4<7[8:1],,1>4[8:1],,6,6h[4:1],,5,,4/7,,3h[4:1],,1,1h[4:1],,5>2[8:1],,8<5[8:1],,3,3h[4:1],,4,,5/2,,7h[4:1],,5h[4:1],,
8,8<5[8:1],,3>8[8:1],,6>3[8:1],,1,1,,2/5,,4/7-3[8:1],,2,1-5[8:1],,6,7,8h[4:1],,1,1,,5,,3,,

{8}1>5[4:1],,6,7,7h[4:1],,8,8,,3h[4:1]/5h[4:1],,,2qq5[2:1],,4,4,,6,7,7h[4:1],,5<4[8:3],,Cf,,,,,4/5,,3/6,,7h[4:1],,5,5,,4/8-4-2-6[2:1],,3,,2,,1>4[8:1],,6,7,7>2[8:1],,4,3,3-6[8:1],,8,7,7h[4:1],,5,5-1[8:1],,6,,2/7,,8<4[4:1],,3,2,2h[4:1],,1,1,,4/6,4/6,,7pp4[2:1],,5,5,,3,2,2h[4:1],,4>5[8:3]*p5[8:3],,,,,,,5,,4/6,,7h[4:7]/5-3[8:1],,5,,5-2[8:1],,5,,5-1[8:1],,5,,4,,5qq1[2:1],,6,,6,,7,7h[4:1],,1-5[8:1],,5x,6x>8[8:3],,4b,,,E5,E4,E3,E2,,1-4[8:1]*-5[8:1],,1b,,

{8}6<1[8:1],,4,5-2[8:1],,5-8[8:1],,1/5,,3,3,,2-5[8:1]/6-1[8:1],,2/6,,3>8[8:1],,5,4-7[8:1],,4-1[8:1],,8/4,,6pp4[8:3],,4,,3,3,,1x-5[8:1],,1/6x-8[8:1],,4x-2[8:1]/6,,4/7x-3[8:1],,2x-8[8:1]/7,,2/6x-4[8:1],,1/6,,2/5,2/5,,6,5,8,1,4-1[8:1]*-7[8:1],3,,,2/6,2/6,{16}3,4,5,6,7,8,1,2,3,4,{8}5x/6x<1[8:1],,4,5-2[8:1],,5-8[8:1],,1/5,,3,3,,2-4[8:1]/6-4[8:1],,2/6,,{16}3/5,,4,5,3,,{8}1-4[8:1],,1-6[8:1],,1/5,,6pp4[8:3],,4,,3,3,,1x-5[8:1],,1/6x-8[8:1],,4x-2[8:1]/6,,4/7x-3[8:1],,2x-8[8:1]/7,,2/6x-4[8:1],,1/6,,2/5,,6-1[8:1],,4,3-8[8:1],,5<4[2:1],,1b,{4},,,3/6,

{8}2h[4:1],,4,4,3<6[8:1],,8,8h[4:1],,5,4,3/7qq4[8:3],,2,2,,1,1h[4:1],,4-8[8:1],,3-6[8:1],,7-2[8:1],,4,4qq1[2:1],,8,,5,,6,6,,5/7,5h[8:1]/7h[8:1],,4h[8:1]/2h[8:1],,4h[8:1]/6h[8:1],,3h[8:1]/5h[8:1],,{12}6,5,7,3,4,2,{8}8-4[8:1],,4,3h[8:9],,,4,,4,,2,,2,,4,,1-5[8:1],,5,6h[8:11],,E6,E5,E4,E3,,1s5[8:3],,,,,,{16}7h[16:3],,,6h[16:3],,,5h[16:3],,,4h[16:3],,,3,,3,,{8},7,7<5[8:1],,4>1[8:1],,5,,1x-7-3-5[8:3]/4,,,,6,6,,4/8h[1:1],,5,5,5,5,5-1[8:1]b,5,,{1},

{24}E6,E5,E4,,,,{8},,,,,3h[2:1],,,,4,,4,5,6,6h[8:11],,,5>2[8:1],,,,,,,,4,,3/5,3/5,,{2}A2/E3/B3,A4/E4/A3,A5/E5/B4,E6/B5/A6,B6/E7/A7,{8},,,B7/B6/B5,,B4,B3,B2,,,,,1b/8b,,,,3/6,3/6,,4/5,,3/6,3/6,{16}7,8,1,2,3,4,5,6,7,8,

{8}1x/2x<7[8:1],,4,5-1[8:1],,3-7[8:1],,8h[4:1],,1,1V35[4:1],,5-1[8:1],,6,,7>2[8:1],,5,4-8[8:1],,6-2[8:1],,1h[4:1],,8,8,,3-5[8:1]/7-1[8:1],,,,{4}8x<4[4:1],4x>8[4:1],8x<4[4:1],4x>8[4:1],8x<4[4:1],4,8,{8}4/7,4/7,,3,4,1,8,5-8[8:1]*-2[8:1],6,,,3/7,3/7,{16}6,5,4,3,2,1,8,7,6,5,{8}3>8[8:1]/4,,5,4v7[8:1],,4v1[8:1],,4/8,,6,6,,3-5[8:1]/7-5[8:1],,3/7,,4/6,{16}5,4,6,,7,,{8}1/8,2,3/5,2b/6b,,2qq5[8:3],,5,,6,6,,{4}8x-4[8:1],8/3x-1[8:1],5x-7[8:1]/3,5/2x-6[8:1],7x-1[8:1]/2,7/3x-5[8:1],8/3,7/4,{8}3-8[8:1],,5,6-1[8:1],,4>5[2:1],,8b,,,,,,5/6,7-4[8:1]/8-3[8:1],,7/8,,2,2h[4:1],,4-8[8:1],,3-6[8:1],,7,7h[4:1],,5,,7-4[8:1]/8-3[8:1],,7/8,,1,1h[4:1],,4pp8[8:5],,2,,3,3,,2,,2-5[8:1]/1-6[8:1],,2/1,,7,7h[4:1],,5-1[8:1],,6-3[8:1],,2,2h[4:1],,4,,2-5[8:1]/1-6[8:1],,2/1,,7,7h[4:1],,5-1[8:1],,5,{2},1b,

{8}3-8[8:1],,4,4,5<8[8:1],,4,3,2-5[8:1],2,6-1[8:1],6,4-8[8:1],4,7,,6-1[8:1],,5,5,4>1[8:1],,5,6,7-4[8:1],7,3-8[8:1],3,5-1[8:1],5,2,,3-8[8:1],,4,4,5<8[8:1],,4,3,2-6[8:1],2,7-1[8:1],7,3-5[8:1],3,8b,,6-1[8:1],,5,5,4>1[8:1],,6,7,8,8,1/7,1/7,2/6,2/6,3>5[4:5]/5<3[4:5],3/5,{1},{4},,4w8[8:1]b,E

Re:MASTER


  • MASTER譜面を追加しました。修正等ありましたらよろしくお願いします。 -- Sugar (2026-05-07 16:54:43)
  • EXPERT譜面を追加しました。修正等ありましたらよろしくお願いします。 -- Sugar (2026-06-29 12:44:11)
名前:
コメント:

タグ:

+ タグ編集
  • タグ:
最終更新:2026年06月29日 12:44