EASY
BASIC
ADVANCED
EXPERT
MASTER
(165)
{8}7h[4:1],,6h[8:3],,,5h[8:3],,,4h[8:3],,,3h[4:1],,2,1,2,,7,8,7,,,4,3,,5,6,,4,5,2,7,
3h[4:1],1,8,,7,1,,,6h[4:1],8,1,,2,8,,,3h[4:1],4,5,,6,3,,,{4}45,67,23,18,
{8}2-5[8:1],6,,,7-4[8:1],3,,1h[8:3],,,4-8[8:1],,5-1[8:1],,8b,,
7h[8:3],5,,1,2h[8:3],4,,8,,6,3,5,4,1,,,2h[8:3],4,,8,7h[8:3],5,,1,,3,6,4,5,8,,,
6h[8:3],8,,2,3h[8:3],1,,7,,6,5,4,3,8,,,3h[8:3],1,,7,6h[8:3],8,,2,,3,4,5,6,1,8b,,
7h[8:3],4,,8,,5,3,1,2h[8:3],5,,1,,4,6,8,7,2,,18,,2,7,3,6q4[16:3],,,3p5[16:3],,,8,,
2h[8:3],4,,1,,4,6,8,7h[8:3],5,,8,,5,3,1,2,7,,36,,1,2,3,4p5[16:3],,,6<3[16:5],,,,,
{4}5h[4:1],4h[4:1],3h[4:1],1,4h[4:1],5h[4:1],6h[4:1],8,
7h[4:1],5h[4:1],3h[4:1],1,2h[4:1],4h[4:1],6h[4:1],8,
{8}6h[2:1],,,5,5,,1,,3h[2:1],,,4,4,,8,,27,,6,46,,3,35,,2,28,,7,17,,36,,
,2b/8b,1b/7b,,4b/5b,,1b/8b,,
7v4[8:1],3,,,2v5[8:1],6,,7h[8:3],,,1-5[8:1],,8b,,,4h[4:1],,3,2,1,8,7,6,5h[4:1],,6,7,8,16,,38,,
2v5[8:1],6,,,7v4[8:1],3,,2h[8:3],,,8-4[8:1],,1b,,,5h[4:1],,6,7,8,4,3,2,1h[4:1],,8,7,6,5-1[8:1],,8b,,
3h[4:1],,4h[4:1],,8,8,,6h[8:3],,5,5,,2,1,,,6h[4:1],,5h[4:1],,1,1,,3h[8:3],,4,4,,7,8,,,
{2}5v4[8:1],2z6[4:1],7s3[4:1],1-5[8:1],{8}6,46,,4,24,,2,28,,8,68,,7,2,1b/8b,,
7-3[8:1],2,,,2-6[8:1],7,,8h[8:3],,,1s5[4:1],,8b,,,6h[4:1],,7,8,1,4,3,2,1h[4:1],,8,2,7,38,,16,,
2-6[8:1],7,,,7-3[8:1],2,,1h[8:3],,,8z4[4:1],,1b,,,3h[4:1],,2,1,8,5,6,7,8h[4:1],,1,2,3,4-8[8:1],,1b,,
6,1,1,3,8,8,,27,,6,5,4,3,12,,,3,8,8,6,1,1,,2,7,4,5,1,8,27,,,
{2}4q5[4:1],7p6[4:1],2q3[4:1],8-4[8:1],
{8}3,35,,5,57,,7,17,,1,13,,2,7,18,,56,47,,34,25,,12,38,,78,16,,45,,1b/8b,,
7h[8:3],5,,1,2h[8:3],4,,8,,6,{16}3,4,{8}3,7,1,,,2h[8:3],4,,8,7h[8:3],5,,1,,3,{16}6,5,{8}6,2,8,,,
6h[8:3],8,,2,3h[8:3],1,,7,,6,{16}2,4,{8}2,6,8,,,3h[8:3],1,,7,6h[8:3],8,,2,,3,{16}7,5,{8}7,3,1,8b,,
,7,8,1,2,4,5,7,3,{1}6,,,,E
Re:MASTER
- MASTER譜面を追加しました。修正等ありましたらよろしくお願いします。 -- けもがみ (2026-04-05 17:33:04)
最終更新:2026年10月03日 22:22