(224){1},
,{12}2h[2:1]/4h[2:1],,,,,,,,2x/4x,,,,5h[2:1]/7h[2:1],,,,,,,,5x/7x,,,,3h[2:1]/6h[2:1],,,,,,,,3x/6x,,,,45,,45,,,27,,,18,,,,3h[4:1]/4h[6:1],,,,,,4h[4:1]/5h[6:1],,,,,,56,,56,,,7<3[4:1],,,3x,,,,,,1xh[3:1],,,,8,,,17,,,35,,35,,,2bx/6bx,,,,,,,7h[4:1],,,8,,,2h[4:1],,,1,,,7,,7,8>3[8:1],,,,,,,,,6h[4:1],,,5,,,3h[4:1],,,4,,,7,,7-4[8:1],,,17,,,,25,,,3,,3,4h[12:5],,,,,8x,,,,6,,6,5h[12:5],,,,,1x,{4},2h[4:3]/7z3[12:5],,,,{12}1x/2x,,1x/2x,,,3b/8b,{2},
{4}2xh[3:2]/4x>1[12:5],,,,1xq5[12:5]/3xh[3:2],,,,5x<8[12:5]/7h[3:2],,,,8h[4:1],7,6,56,4<7[4:1],3,2,1,8>3[4:1],7,6,5,4,56,7,18,2q4[2:1],,,7x,{12}6h[4:1],,,4,,,2,,2,4,,,6h[4:1],,,4-2[8:1],,,7x,,,1x,,,3h[4:1],,,5,,,7,,7,5,,,3h[4:1],,,5-7[8:1],,,2x,,,8x,,,6,,,45,,,3,,,12,,,78,,78,,,16,,,,7>2[4:1],,,2<7[4:1],,,3,,,4x,,4x,,,1b/6b,,,,,,,25,,,34,,,
A2/E2/B2,,,,,,45,,45,,,,B1/B8/C,,,,,,56,,56,,,,A7/E8/B7,,,,,,45,,45,,,,B1/B8/C,,,,,,4h[16:3],,,5,,,4,,,35,,,2,,,13,,,7,,7,8,,,6,,6,5,,,78,,,12,,,34,,,56,,,38,,38,,,1x/7x,,,3b/6b,,,,
1q6[4:1]*>5[4:1]/2,,,,,,,,,1/8q5[4:1]*>4[4:1],,,,,,,,,7h[4:1],,,8,,,56,,,34,,34,,,12,,,3,4,,6,5,,7,,,1x/8x,,,,7/8<4[4:1]*p3[4:1],,,,,,,,,1<5[4:1]*p4[4:1]/8,,,,,,,,,1,,,12,,,34,,,56,,56,,,78,,,2x,1x,,3x/8x,,,1x/6x,,,2b/7b,,,,7/8V64[4:1]*p3[4:1],,,,,,,,,1V75[4:1]*p4[4:1]/8,,,,,,,,,2h[4:1],,,1,,,34,,,56,,56,,,78,,,6,5,,3,4,,2,,,1x/8x,,,,1q6[4:1]*V35[4:1]/2,,,,,,,,,78,,,13,,1-5[8:1]/3-1[8:1],,,1x/3x,,,,6x-1[8:1],,,2x-5[8:1]/6x,,,2x,,,8,,8,,,2b/6b,,,35,35,,1b/8b,,,7x,{4}8x,
5h[2:1]/6,8,6h[2:1],8,5h[4:1],7h[4:1],6h[4:1],5,6,57,7,68,7-5[4:1],5-3[4:1],3,,3/4h[2:1],1,3h[4:1],1,{12}2x/8x,,2x/8x,,,7xv5[6:1]/3xv1[6:1],,,,,,,2h[4:1],,,4h[4:1],,,5h[4:1],,,7,,,78,,2,1,,38,,,56,56,,,1-5b[8:1]/7,,,1b/5b,,,6,,6h[4:1],,,5,,,34,,,12,,,7,8,,6,5,,,34,,,25,,25,,,3h[4:1],,,1,2,,6h[4:1],,,8,7,,6,5,,7,8,,2,1,,3,4,,6,5,,46,,,35,,,2,4,,3,5,,4,6,,5,7,,1/8-4[8:1],,,2-6[8:1]/8bx,,,2bx,,,8b,{4},,
3/7h[4:3],4,5,5h[1:1],1,8,7,6q3[2:1],4,3>6[4:3],4,,{12}3x,,3x-5[8:1],,,3x,,,6x,{4},3h[2:1]/7,8,1,1h[1:1],5,4,3,2q7[2:1],8,7p2[2:1],5,,{12}4x,,4x-8[8:1],,,4x,,,3x,{4},2,3-5[8:1],1,8,7,6-4[8:1],8,1,2,3,38,27,{12}1x/6x,,1x/6x,,,5h[3:1]/8h[3:1],,,,,,,4x/8x,,,,,8x>3[8:1]/4x<7[8:1],,,,,,,3x/7x,,,,,7x-4[8:1]/3x-8[8:1],,,,,,,8xV24[12:5]/4x<8b[12:5],,,,,,,,,,,,2bx/4bxh[1:1],,,,,,,,,,,,2x,,1,,8,,3x/7x,,26,,15,,{8}8b-2b[8:1]/4b-6b[8:1],,,,,,34,,
A2/E2/B1/B2/B8,,,,{12}45,,45,,,,E1/E2/E8/B1/B8,,,,,,56,,56,,,,A7/E8/B1/B7/B8,,,,,,45,,45,,,,A2/A7/E2/E8/B1/B2/B7/B8,,,,,,3,,3,4,,4,2,,,18,,,7,,,56,,,3,,3,1,,1,2,,2,8,,,1/7-4[8:1],,,3,,,2-5[8:1]/8,,,6,,,18,,8-4[8:1]/1-5[8:1],,,1b/8b,,,3bx/6bx,,,,
{2}7pp4[4:5],,B1/B8,,2qq5[4:5],,B1/B8,,8<5[2:1],E7/B6/B7,1>4[2:1],E3/B2/B3,7-2[12:5]/2q7[12:5],,{12}4b/5b,,5b-8[8:1]/4b-1[8:1],,,4bx/5bx,,,2b/7bh[3:1],,,,
{24}3x,4x,5x,6x,7x,8x,{4}1x,12,45,{12}78,,8-4[8:1]/7-3[8:1],,,7bx/8bx,,,,2,,,34,,,56,,56,,,78,,,2,1,,1,3,,3-6[8:1],,,3x/6,,,,4/5q2[4:1]*V71[4:1],,,,,,,,,34,,,68,,8-4[8:1]/6-8[8:1],,,6x/8x,,,,1<6b[8:1]/3,,,1x>4b[8:1],,,1x,,,56,,56,,,12,,,45,45,,2bh[3:1]/7bh[3:1],{4},,
1h/8h,5h/7h,6>4[12:5]*q4[12:5],,,,3x,1p4-6[12:5]*q6[3:1]/2,,,,7xpp3[2:1],,,1x,2x,7xq3[4:1]/3xq7[4:1],3x/7x,,46,8-6[8:1],2-4[8:1],1-5[8:1],,3>8[4:1],8<5[4:1],5>2[4:1],2,8,{12}16,,5,3,,,1/8-4[8:1],,,1b/8b,,,3,,3,1,,1,8,,8,6-1[8:1],,,2-5[8:1],,,7,,,7x/8x,,,18,,,2,,2,4,,4,5,,5,7<4[8:1],,,3>8[8:1],,,6,,,1x/7x,,,26,,,34,,,{12}56,,56,,,8p3[8:1]/7<4[8:1],,,,,,,12,,,56,,,7b/8b,,,35,,,18,,18,,,6bpp4b[12:7]/3bqq5b[12:7],{4},,,,B1/B2/B3/B4/B5/B6/B7/B8/Cf,,,{1},,,,,,,
E