アットウィキロゴ

ハロ/ハワユ

アーティスト ナノウ

BPM EASY BASIC ADVANCED EXPERT MASTER Re:MASTER
95 1 3 7 9 12 -

EXPERT MASTER Re:MASTER
譜面制作者 はっぴー mai-Star -

EASY


BASIC


ADVANCED


EXPERT


MASTER

(95){16}2,,,4,,,6,,,,,,1/8,,,,7,,,5,,,3,,,,,,1-4[16:1]/8-5[16:1],,,,,,,2,1,,2h[8:1],,1h[8:1],,8h[8:1],,7h[16:3],,,2,{40}3,,,2,,4,,,2,,{8}3,2,1<6[8:1],,1,2,3,{16},5,4,,7h[8:1],,8h[8:1],,1h[8:1],,2h[16:3],,,8,1-7[16:1],,1-4[16:1],,{2},{4}8,{16}1/2,,,7/8,,,5/6,,,,3/4,,4/5,,,,7/8,,,1/2,,,3/4,,,,1,,5,,1,,4/5,,,2/4,,,5/7,,,,1/8,,8h[4:1],,,,6h[16:3],,,4h[16:3],,,2,,,,4/8,,3/7,,2/6,,{40}1/5,,,,,3,,,4,,4,,,,,6,,,5,,{8}5,3/6,1b/8b,,

{8}4<7[8:1],,,{40},,,2,,{8}1,7,8,,5>2[8:1],,,{40},,,7,,{8}8,2,1,8,7p8[8:1],,,{40},,,2,,{8}1,4,5,,8-4[8:1],2-6[8:1],,,,,1>4[8:1]/8<5[8:1],,

{4},,1-5[8:1]/2,3,8-4[8:1]/7,6,3/4,{8}7/8,1/6,{4}2/5p7[8:1],3,7/4q2[8:1],6,{8}1/8,{16}1/8,2/7,,2/7,3/6,,{4},4/5,{8}1b/8b,{40},,,2,,1,,,1,,8,,,8,,7,,,,,1,,,8,,1,,,8,,,,,3,,4,,,4,,5,,,5,,6,,,,,4,,,5,,{8},,1/2,,{24}7/8,,,{40},,,3,,{8}3h[8:1],4h[8:1],5h[8:1],6h[8:1],7h[8:1],{40}1,,,8,,{8}1h[8:1],7h[8:1],5h[8:1],3,,2/8,1b/7b,,

{8}3/4,3/4,5/6,5/6,3/4,2/4,6/5,7/5,2/3,3/4,7/6,6/5,1p4[8:1]/8<5[8:1],,,,3h[2:1],,1,5,7,3/7,1/5,1/2,1/8,7/8,3/4,4/5,5/6,,
4,5,3h[8:1],2,3h[8:1],1,3h[8:1],8,3h[8:1],7,6h[8:1],7,6h[8:1],8,6h[8:1],1,6,6,1p4[8:1],,,{40},,,6,,{8}5,1,1,,{16}7,,{40}7,,,6,,,,,6,,5,,,,,{2},

{8}1/5,2/6,3/7,,8/4,7/3,6/2,,1/2,2/3,3/4,4/5,5/6,6/7,7/8,,1/2,7/8,3/6,,3/4,5/6,2/7,{40},,,8,,{8}1,8,2,7,4/5,,7/8,1/8,1/2,6/5,4/5,3/4,2q6[8:1]/6q2[8:1],,,,3/4,5/6,2/4,5/7,4/5,,1/8,{40},,,1,,{8}8,3/4,5/6,{40},,,4,,{8}5h[4:1],7,4h[8:1],2,4/5,2/7,1/8,{16}4/5,2b/7b,{8},,1,2-5[16:1],

{8}8,7-4[16:1],3,1-5[16:1],6,8-4[16:1],4,3-8[16:1],5,6-1[16:1],1,2-5[16:1],8,8,,,1/2,1-6[16:1]/2-5[16:1],1/2,,8/7,8-3[16:1]/7-4[16:1],8/7,,1/8,3/6,{40}4,,,5,,{8}4,,{40},,,3,,5,,,3,,5,,,2,,6,,,4,,6,,,4,,5,,,4,,5,,,4,,8,,,1,,,,,2/7,,,,,5,,4,,,,,7,,,8,,2,,,1,,{8}2/7,3/6,{40}1/8,,,1/8,,2/7,,,,,,,,3,,5,,,3,,5,,,4,,6,,,4,,6,,,2,,8,,,1,,7,,,2,,,,,7,,{8},1/2,5/6,{40}4/5,,,3,,7,,,8,,{8}1b,{4},7>3[8:1]/6q3[8:1],,2h[8:5],{8}8,8,,6h[2:1],4,4,8,8,{40},,,1,,8,,,,,{4},1/8,{8}1h[8:3],,3,3,,{40}7,,,2,,{8}1/8,,6p4[2:1],6,E

Re:MASTER


  • MASTER譜面を追加しました。修正等ありましたらよろしくお願いします。 -- Sugar (2026-06-30 11:56:25)
名前:
コメント:

タグ:

+ タグ編集
  • タグ:
最終更新:2026年10月03日 22:33