EASY
BASIC
ADVANCED
EXPERT
MASTER
(120){1},
4h[1:2],,
5h[4:7],{8}6,,6,,6,6,6,,
2h[16:3],{16},3h[16:3],,,4,,4h[16:3],,,3h[16:3],,,2,,2h[16:3],,,3h[16:3],,,4,,45,,,,45,,,,
7h[16:3],,,6h[16:3],,,5,,5h[16:3],,,6h[16:3],,,7,,7h[16:3],,,6h[16:3],,,5,,45,,,,45,,,,
3,,3,4,,3/5^8[8:1],,2,,2,,,4,5,3,,3,,3,4,,35,,56,,,,,45,,,,
6,,6,5,,4^1[8:1]/6,,7,,7,,,5,4,6,,6,,6,5,,46,,3,4,3,5,5,4,,36,,
3,,3,4,,35,,46,,35,,,4,5,3,,3,,3,4,,35,,4h[16:7]/8h[16:7],,,,,,,,,
6,,6,5,,46,,35,,46,,,5,4,6,,1/4h[4:1],1,1,1,1,,45,,4,5,,5,4,,4,5,
3,,3,4,,35,,46,,35,,,4,5,3,,5h[4:1]/8,8,8,8,8,,45,45,,1/5h[16:3],1,1,{12}1,27,36,
{16}6,,6,5,,46,,35,,46,,,5,4,6,,6,,6,5,,46,,35,,{32}4,5,,,{16}4,45,,,,
{24}4,5,4,5,4,5,3,6,3,6,3,6,2,7,2,7,2,7,{16}1>7[4:3],,,8h[16:13],{1},
{16}5,46,,46,,,4,35,,35,,,5,,4,,
6<3[4:1],,,5,,,4,,,,34,,25,,,,3>6[4:1],,,4,,,5,,,,56,,47,,,,
6<3[4:1],,,5,,,4,,,,34,,25,,,,3>6[4:1],,,4,,,5,,,,56,,48,,,,
5>1[4:1]/6,,,6,,,5,,4<8[4:1],,,3,,,4,,5,,,6,,,5,,3,4,,4,2,2,5,,
3/4<8[4:1],,,3,,,4,,5>1[4:1],,,6,,,5,,4,,,3,3,4,,45,,57,,5,4,,36,,
3/4<8[4:1],,,3,,,4,,5>1[4:1],,,6,,,5,,4,,,3,,,4,,6,5,,5,7,7,4,,
5>1[4:1]/6,,,6,,,5,,5,,1,8,,,36,,18,18,18,,,,36,36,3/6qq7[8:3],,,5,6,4,,,
8,,,,4,5,,5,3h[4:1],,,,8qq8[4:1],,1,,2,,,4,4,,6,,3pp2[8:3]/4,,2,4,3,5,,,
1,,,,5,4,,4,6z2[4:1],,,,2z6[4:1],,,,6,,,5,,,4,,3pp2[8:3]/4,,2,4,3,5,,,
1,,,,5,4,,4,{8}6,,3p6[4:1]/7^2[4:1],37,,,,,5/6qq7[8:3],{16}7,5,6,4,,,
8,,,,4,5,,5,3,,1,,1,,8,,8w4[16:7],,,8,{4},,,
{1}26,,
{16}4,{8}5,45,34,23,45,56,67,78,45,34,23,12,7q8[16:15]/8>7[16:15],{4}67,,,,,{16},
6,5,,47,,,3,4,,25,,,5,4,,,3,4,,25,,,6,5,,47,,,45,,4,5,
3,4,,25,,,6,5,,47,,,{12}1b/8b,2b/7b,3b/6b,{16}3,4,,25,,,6,5,,4>5[16:11]/7,,,5,4,,,
{1},{16}5/8h[4:1],5,5,5,5,,1h[4:1]/4,4,4,4,4,,4qq8[2:1]/5,,4,5,
5,,,7,7,,,6,6,,,56,5pp1[2:1]/6,,5,,4,,,2,2,,,3,3,,,34,3/4qq8[2:1],,4,,
5,,,7,7,,,6,6,,,56,5pp1[2:1]/6,,5,,4,,,2,2,,,4,4,,,3,3,,45,,
6h[16:3],,5,5,,78,,12,,34,,6,5,,47,,3h[16:3],,4,4,,12,,78,,56,,3,{8}4^1[8:1],4,
5^8[8:1],5,1,1,4,4,2pp2[8:3]/6pp6[8:3],26,,,,,{12}18,18,18,27,27,27,
3b/6b,,,{16}5,4,,4,6h[4:1],,,,1pp1[4:1],,8,,7,,,5,5,,3,,5/6qq7[8:3],,7,5,6,4,,,
8,,,,4,5,,5,3s7[4:1],,3,,7s3[4:1],,7,,3,,,4,,,5,,5/6qq7[8:3],,7,5,6,4,,,
8,,,,4,5,,5,{8}3,,2^7[4:1]/6q3[4:1],26,,,,,3pp2[8:3]/4,{16}2,4,3,5,,,
1,,,,5,4,,4,6,,8,,8,,1,,37,37,37,,,,26,26,26,,,,,,{24}1,8,1,
{1}8,,E
Re:MASTER
最終更新:2026年10月08日 21:13