アットウィキロゴ

超常マイマイン

アーティスト ナユタン星人

BPM BASIC ADVANCED EXPERT MASTER Re:MASTER
178 3 7 10 12+ 13+

EXPERT MASTER Re:MASTER
譜面制作者 小鳥遊さん はっぴー ロシアンブラック

BASIC


ADVANCED


EXPERT


MASTER

(178){6}
5h[6:1],6h[6:1],7h[6:1],8h[6:1],1h[6:1],2h[6:1],3h[6:1],4h[6:1],5h[6:1],4{16}4,,,4,5,,46,,
{2}3-8[8:1]/7-4[8:1],2-5[8:1]/6-1[8:1],{16}18,,,36,{8},45,27,,8b,,

2-5[8:1],2,6-1[8:1],6,2,,E4/E6/B4/B5,,7-4[8:1],7,3-8[8:1],3,7,,E4/E6/B4/B5,,
2-5[8:1],2,6-1[8:1],6,2,,E4/E6/B4/B5,,2,1,8,7,4^1[8:1]/6,,8,,
7-4[8:1],7,3-8[8:1],3,7,,E5/E7/B5/B6,,2-5[8:1],2,6-1[8:1],6,2,,E3/E5/B3/B4,,
7-4[8:1],7,3-8[8:1],3,7,,E5/E7/B5/B6,,7,8,1,2,3,4,5,6,

6-3[8:1],,3,2-7[8:1],,7,6-3[8:1],,3,2-7[8:1],,7,6,,45,,
47,{16}6,5,6,,47,,3,,3,,25,,,,3,4,,4,3,,3,,25,,,36,{8},47,
3-6[8:1],,6,7-2[8:1],,2,3-6[8:1],,6,7-2[8:1],,2,3,,45,,
25,{16}3,4,2,,6,5,7,,1,,18,,,,47,,6,5,7,,3,4,2,,8,,{4}18,
5-8[8:1]/6,7,4-8[8:1]/6,7,5-8[8:1]/6,7,{8}46,3,{4}35,
3/4-1[8:1],2,3/5-1[8:1],2,3/4-1[8:1],2,{8}35,6,46,,
3,24,,6,57,,34,25,,56,47,,1-5[8:1]/8-4[8:1],,18,,
27,{16}3,4,2,,8,,1-4[8:1],,,,8,,,,47,,6,5,{8}7,1,8,27,36,,

5^8[8:1],4,3,,6^1[8:1],5,4,,7^2[8:1],6,5,,8^3[8:1],7,6,,
1^4[8:1],8,7,,2^5[8:1],1,8,,3^6[8:1],2,1p8[8:3],,,,,,
4^1[8:1],5,6,,3^8[8:1],4,5,,2^7[8:1],3,4,,1^6[8:1],2,3,,
8^5[8:1],1,2,,7^4[8:1],8,{4}1,3h[8:3]/6,7h[8:3],2h[8:3],8h[4:1],

{16}1b,,,24,,,45,,57,,,18,,,24,,45,,,57,,,78,,7-3[8:1]/8-4[8:1],,,,7x/8x,,,,
18,,,57,,,45,,24,,,18,,,57,,45,,,24,,,18,,{4}2b/7b,8<4[4:1],

4>8[4:1],8<4[4:1],4>8[4:1],8<4[4:1],4>8[4:1],8<4[4:1],4,8,
{16}1,,6,5,{8}7^4[8:1],7,3,3,2-5[8:1],2,7-4[8:1],7,2,2,36,7,{4}18,
E5/E6,E3/B3/B4,C/E7,E1/E2/B1,E4/E5,E7/B5/B6,C/E3,E1/E8/B8,
6-4[8:1],{8}3,2-8[8:1],,7,7,7,56,{16},45,,,34,,{4}25,1b>5[4:1]/7b,
5<1[4:1],1>5[4:1],5<1[4:1],1>5[4:1],5<1[4:1],1>5[4:1],5,1,
{16}8,,3,4,{8}2^5[8:1],2,6,6,7-4[8:1],7,2-5[8:1],2,7,7,36,2,{4}18,
E4/E5,E7/B5/B6,C/E3,E1/E8/B8,E5/E6,E3/B3/B4,C/E7,E1/E2/B1,
3-5[8:1],{8}6,7-1[8:1],,2,2,2,34,{16},45,{8},56,4/7-3[8:1],,1b,,

{6}45,34,23,45,56,67,{8}E4,B5,B4,E6,C,E8,E2,,
{6}45,56,78,45,34,23,{8}E6,B4,B5,E4,C,E2,E8,,
{6}3/6x,4/7x,5/8x,3x/6,2x/5,1x/4,3/6x,4/7x,5/8x,{16}3x/6x,,,4,5,,5,,
{4}2-5[8:1]/6-2[8:1],2x/6x,3-7[8:1]/7-4[8:1],3x/7x,{16}24,,,57,,,36,,{12}Cf/B4/B5,,,1x/8x,,,

3,4,3,6x,5,6,3,4,3,6x,5,6,3,4,2,6x,5,7,3,4,2,6x,5,7,
2,4,3,7x,5,6,2,4,3,7x,5,6,{16}4,5,4,5,4,5,4,5,{12}4,,,27,,,
6,5,7,3x,4,2,6,5,7,3x,4,2,7,8,6,2x,1,3,7,8,6,2x,1,3,
7,5,6h[3:1],,,,2,4,3h[3:1],,,,8,8,8,1,1,1,27,,,4>5[2:7]/5,,,

{1}Ch[2:7],,
,,
{4}E5,E4,E3,E2,E1,E8,E7,E6,
{8}36,36,36,36,36,36,36,36,{4}3h[2:1]/6h[4:1],,,8b,

{32}1x,2x,3x,4x,5x,6x,7x,8x,1x,2x,3x,4x,5x,6x,7x,8x,1x,2x,3x,4x,5x,6x,7x,8x,1x,2x,3x,4x,5x,6x,7x,8x,1x,2x,3x,4x,5x,6x,7x,8x,1x,2x,3x,4x,5x,6x,7x,8x,{8}1x,3x,5x,7x,
2^5[8:1],2,7,7,6-1[8:1],6,2,2,3,3,4-1[8:1],6,7,8,18,,
57,4,E2/B8,,24,5,E8/B1,,57,4,E2/B8,,24,5,E8/B1,,
{2}5^2[8:1]/6^1[8:1],3^8[8:1]/4^7[8:1],{16}56,,,45,{8},34,2-6[8:1]/5,,8b,,

{6}78,45,36,12,45,45,{8}E4,B5,B4,E6,E2/E8,E3/E7,E4/E6,,
{6}12,45,36,78,45,45,{8}E6,B4,B5,E4,E2/E8,E3/E7,E4/E6,,
{6}3x/6,2x/5,1x/4,3/6x,4/7x,5/8x,3x/6,2x/5,1x/4,{16}3x/6x,,,5,4,,4,,
{4}3-7[8:1]/7-4[8:1],3x/7x,2-5[8:1]/6-2[8:1],2x/6x,{16}57,,,24,,,36,,{4}Cf/B4/B5,8b,
{4}2^5[8:1]/6^1[8:1],2x/6x,3^8[8:1]/7^4[8:1],3x/7x,{16}24,,,57,,,36,,Cf/B4/B5,,,,1b/8b,,,,

6,5,6,5,7,,3,4,3,4,2,,1b/5b,,,,3,4,3,4,2,,6,5,6,5,7,,4b/8b,,,,
6,5,6,5,7,,3,4,3,4,{8}2,1b/5b,,7-2[8:1],7,3-6[8:1],3,8-5[8:1],8,4,4,
{16}6,5,7,,,,3,4,2h[4:1],,,,{1}Cf,,E

Re:MASTER

(178){6}
68,57,46,13,24,35,68,57,46,{16}5h[16:3],,,4,5,,37,,
{4}3-8[8:1]/7-3[8:1],3x/7x,2-6[8:1]/6-1[8:1],2x/6x,{16}47,,,25,,,36,,3^1[10:1]/6^8[10:1],,,,,,,,

3,4,3,4,3,,6,5,6,5,6,,E2/B1/B2/B3/B8,,,,6,5,6,5,6,,3,4,3,4,3,,E8/B1/B6/B7/B8,,,,
3,4,3,4,3,,6,5,6,5,{8}6,E1/B1/B2/B7/B8,,6h[4:1],5,3h[4:1],4,7h[8:1],{24}8,1,2,{16}3,,6,,
7,5,7,5,7,,2,4,2,4,2,,E7/E8/B6/B7/B8,,,,2,4,2,4,2,,7,5,7,5,7,,E2/E3/B1/B2/B3,,,,
7,5,7,5,7,,2,4,2,4,2,,C/B1/B2/B7/B8,,,,3h[4:1],,4,,6h[4:1],,5,,2h[8:1],,{24}1,8,7,{8}6,3,

2qq7[4:5],,E3,E4,,E7,E6,,E3,E4,,E7,{4}E6,5^3[8:1]/6,
5b/6b-1[8:1],5-2[8:1]/6,5/6^8[8:1],56,{16}6,5,,3,4,,6,,57,,,24,{8},18,
7pp2[4:5],,E7,E6,,E3,E4,,E7,E6,,E3,{4}E4,3/4^6[8:1],
3b-8[8:1]/4b,3/4-7[8:1],3^1[8:1]/4,34,{16}34,,2,4,3,,7,5,6,,1,8,2,7,3,6,
{8}4V62[16:3],,8,8V26[16:3],,3,3V51[16:3],,7,7V15[16:3],,2,3,4,36,7,
8V26[16:3],,4,4V62[16:3],,7,7V15[16:3],,3,3V51[16:3],,6,7,8,27,,
45,36,,67,58,,23,14,,18,27,,1-6[8:1]/8-6[8:1],,1x>8[8:5]/8xq1[8:5],,
{1}1b/8b,{16}27,,6,5,7,,3,4,2,,5,4,5,,36,,

47,,{4}5^8[4:1]/8,8q5[4:1],5<1[4:1],1>5[4:1],5q1[4:1],1^4[4:1],5,{8}8,
7,56,,5,46,3,24,5,4qq4[16:5]/6pp6[16:5],,,,,,,36,
25,{4}1/4^1[4:1],1p4[4:1],4>8[4:1],8<4[4:1],4p8[4:1],8^5[4:1],4,{8}1,
2h[4:1],6,7h[4:1],3,2,1,{4}8^5[8:1],1^4[8:1]/8,1/8^5[8:1],1^4[8:1]/8,18,

{16}2b/7b,,,56,,,34,,25,,,34,,,36,,27,,27,36,{4}4-2[10:1]/5,4b/5b-7[10:1],4b/5b,
{16}3,4,,4,3,,25,,6,5,,5,6,,47,,6,5,,3,{8}4,2b/6b,2b/6h[2:1],,,,

8h[8:1],7h[8:1],6h[8:1],5h[8:1],4h[8:1],3h[8:1],2h[8:1],1h[8:1],8h[8:1],7h[8:1],6h[8:1],5h[8:1],4h[8:1],3h[8:1],2h[8:1],1h[8:1],
8,{16}7,1,{8}8,8,2^7[10:1],2,6^3[10:1],6,1-5[10:1],1,,,E4/E5/E6/E7/B4/B6,,2b/8b,,
6h[8:1],4h[8:1],3h[8:1],5h[8:1],7h[8:1],4h[8:1],2h[8:1],5h[8:1],7h[8:1],6h[8:1],2h[8:1],3h[8:1],7h[8:1],1h[8:1],2h[8:1],8h[8:1],
6-4[8:1],,3,2-8[8:1],,{16}7,6,5,,1,,3/4-1[10:1],,,6,{8},8,1h[2:1]/8-5[10:1],,8b,,
3h[8:1],2h[8:1],1h[8:1],8h[8:1],7h[8:1],6h[8:1],5h[8:1],4h[8:1],3h[8:1],2h[8:1],1h[8:1],8h[8:1],7h[8:1],6h[8:1],5h[8:1],4h[8:1],
3^6[10:1],3,1-5[10:1],1,8-4[10:1],8,1>5[4:1],1,{4}5pp5[16:5]*qq5[16:5],,,2b/8b,
5^8[4:1],8z4[4:1],4^1[4:1],1s5[4:1],5^8[4:1],8z4[4:1],{8}1x,1x,1x,,
3-5[8:1],,6,7-1[8:1],,{16}2,3,4,,8,,56,,,34,,,27,,{6}2^4[10:1]/7^5[10:1],,,

27,38,14,25,36,47,{16}E7,,E3,,E6,B5,B4,E4,E8,,E2,,E1,,,,
{6}67,67,67,23,23,23,{16}E3,E7,B3,B6,B4,B5,E5,,E8,,E2,,C,,,,
{6}2h[12:1]/7h[12:1],5h[12:1]/8h[12:1],3h[12:1]/6h[12:1],1h[12:1]/4h[12:1],2h[12:1]/7h[12:1],5h[12:1]/8h[12:1],3h[12:1]/6h[12:1],1h[12:1]/4h[12:1],2h[12:1]/7h[12:1],{16}4h[16:3],,,5,4,,26,,
{4}2-6[8:1]/6-1[8:1],2x/6x,3-8[8:1]/7-3[8:1],3x/7x,{16}25,,,47,,,36,,{12}3b^1[10:1]/6b^8[10:1],,,,,,

3,4,4,2,4,4,1,4,4,8,4,4,7,4,4,6,4,4,5,4,4,5h[4:1],,,
4,6,6,4,7,7,4,8,8,4,1,1,{16}3,2,3,2,3,2,3,2,{12}3-7[10:1],,,3b/6b,,,
6,5,5,7,5,5,8,5,5,1,5,5,2,5,5,3,5,5,4,5,5,4h[4:1],,,
5-1[8:1],5,5,,,,4-8[8:1],4,4,,,,3x/7x,37,37,2x/6x,26,26,{4}1x-5[8:1]/5x,1>8[1:2]*p8[1:2]/8,

{1}1b,,
,,
{8}5,E3/E4,,4,E6/E7,,6,E2/E3,,3,E7/E8,,{16}6,3,6,3,6,3,6,3,
{8}7<1[2:1],,8,8,8,8,8,8,8h[2:1],,4h[4:1],,,,2b/7b,,

{32}1x,2x,3x,4x,5x,6x,7x,8x,1x,2x,3x,4x,5x,6x,7x,8x,1x,2x,3x,4x,5x,6x,7x,8x,1x,2x,3x,4x,5x,6x,7x,8x,1x/Cf,2x,3x,4x,5x,6x,7x,8x,1x/Cf,2x,3x,4x,5x,6x,7x,8x,{8}1x/Cf,,2x,7x,
3^6[10:1],3,8-4[10:1],8,1-5[10:1],1,8<4[4:1],8,{4}4pp4[16:5]*qq4[16:5],,,1b/7b,
4^1[4:1],1s5[4:1],5^8[4:1],8z4[4:1],4^1[4:1],1s5[4:1],{8}8x,8x,8x,,
6-4[8:1],,3,2-8[8:1],,{16}7,6,5,,1,,24,,,57,,,36,,{6}3b^1[10:1]/6b^8[10:1],,,

3h[12:1]/6h[12:1],4h[12:1]/6h[12:1],5h[12:1]/6h[12:1],3h[12:1]/6h[12:1],3h[12:1]/5h[12:1],3h[12:1]/4h[12:1],{16}E3,,E7,,E4,B4,B5,E6,E2,,E8,,E1,,,,
{6}3h[12:1]/6h[12:1],2h[12:1]/5h[12:1],14,3h[12:1]/6h[12:1],4h[12:1]/7h[12:1],58,{16}E7,E3,B6,B3,B5,B4,E5,,E2,,E8,,C,,,,
{6}2h[12:1]/7h[12:1],1h[12:1]/4h[12:1],3h[12:1]/6h[12:1],5h[12:1]/8h[12:1],2h[12:1]/7h[12:1],1h[12:1]/4h[12:1],3h[12:1]/6h[12:1],5h[12:1]/8h[12:1],2h[12:1]/7h[12:1],{16}5h[16:3],,,4,5,,37,,
{4}3-8[10:1]/7-3[10:1],3b/7b,2-6[10:1]/6-1[10:1],2b/6b,{16}47,,,25,,,36,,Cf/B3/B4/B5/B6,,,,1x/8x,,,,
2-6[10:1]/6^1[10:1],,,,2b/6b,Cf,,,3^8[10:1]/7-3[10:1],,,,3b/7b,Cf,,,1b/2b,,,7b/8b,,,4b/5b,,Cf/E3/E4/E6/E7/B2/B3/B6/B7,,,,1b/8b,,,,

7,8,7,8,6,,3,4,3,4,2,,1b/5b,,,,2,1,2,1,3,,6,5,6,5,7,,4b/8b,,,,
7,8,7,8,6,,3,4,3,4,2,,1b/5b,,,,3x/4x,,34,,5x/6x,,56,,2x/7x,,27,36,45,,36,,
1,1,8,,,,{24}18,27,36,4z8[16:1]/5s1[16:1],,,,,,{64},B4/B5,Cf,B1/B8,{1},,E

名前:
コメント:

タグ:

+ タグ編集
  • タグ:
最終更新:2026年08月15日 16:44