アットウィキロゴ

ハオ

アーティスト DECO*27

BPM BASIC ADVANCED EXPERT MASTER Re:MASTER
176 3 7 9+ 13 -

EXPERT MASTER Re:MASTER
譜面制作者 Luxizhel 鳩ホルダー -

BASIC


ADVANCED


EXPERT


MASTER

(176)
{1}B1/B2/B3/B4/B5/B6/B7/B8/Cf,
{8},5,6,7,8,1,2,3,
{8}4/5,,7,7/8,,2,1/2,,
{4}8x/A3/B3/E3,1x/A6/B6/E7,7x/A4/B4/E4,1b-4[8:1],
{4}5x-8[8:1],2x-7[8:1],6x-3[8:1],1x-4[8:1],
{4}5x-8[8:1],2x-7[8:1],6x-3[8:1],1x-5[8:1],
{4}8x-4[8:1],2x-5[8:1],6x,4x/7,
{8}5/6x,7,1/8x,2,3x/4,,6bx/2b-5[8:1],,
{4}6x-1[8:1],3x-8[8:1],7x-4[8:1],2x-5[8:1],
{4}6x-1[8:1],3x-8[8:1],7x,1x/7,
{8}7/8x,6,4/5x,3,1/2x,,1x>4[8:1]/8<5[8:1],,
{4}1-5[8:1]/8x-4[8:1],1x/8,1bxh[8:1]/8bxh[4:1],,
{8}2h[8:3],,,4,5h[8:3],,,4,
{8}3h[8:3],,,4,,3/5,3/5,,
{8}7h[8:3],,,5,4h[8:3],,,5,
{8}6h[8:3],,,5h[4:1],,A7,A8,,
{8}3h[8:3],,,1,8h[8:3],,,1,
{8}2h[8:3],,,1,,2/8,2/8,,
{8}7h[8:3],,,8,1,,2/6,2-5[8:1]/6-1[8:1],
{8},,,4b/8b,,1x,1x,,
{16}3/8,,,1,2V48[4:1],,{8}8,2,,,6,
{16}1/6,,,8,7-3[8:1],,{8}1,7/2-6[8:1],,2,,
{16},,7,8,7,,{8}6,5/6,7,1/8,2,
{16}3>1[8:1],4,3,4,3<5[8:1],,,,3,,,,4b/7b,,,,
{16}4/7,,,5,6V84[4:1],,{8}4,6,,,2,
{16}2/5,,,4,3,,{8}5,2/6,,1/8,,
{8}3qq1[8:1]/7qq5[8:1],,,,A2f/E2/E3,A7f/E7/E8,B4/B5/D5/E5f,Cf,
{2},{16}1,8,1,8,1-4[8:1],,,,
{4}1b-6[8:1],1-5[8:1],1,3/7,
{8}4/6,6/4pp4[4:1]*qq4[4:1],,,,,,2-6[8:1],
{8}2,8-5[8:1],8,1-5[8:1],1,6,6,,
{4}4-7[8:1]*-8[8:1],4b,5-2[8:1]*-1[8:1],5b,
{4}8<5[8:1],3/8>3[8:1],5/8,2/6,
{8}3/5,3v8[8:1]/5v8[8:1],,3/5,,1x/7x,1x/7xV52[4:1],,
{4}2V47[4:1],7,2,1/8,
{4}2-5[8:1]/7-4[8:1],2/7,3b/6b,4/5,
{8}1V38-4[4:3],,7,7,7,7,7,7,
{4}7,5/6-2[8:1],6/5-1[8:1],5,
{8}8V26-4[4:3]b,,3,3,3,3,3,3,
{4}3,4/3-7[8:1],3/4-8[8:1],4,
{8}2h[2:1],,1,8,7h[2:1],,1,2,
{8}3h[2:1],,1,8,7,,3/7,,
{8}1h[4:1]/6h[4:1],,,3/8,3h[4:1]/8h[4:1],,,,
{24}3b/8b,2/7,1h[6:1]/6h[6:1],,,,{4},{24}1b/6b,2/7,3h[6:1]/8h[6:1],,,,{4},
{24}4b/8b,3/7,2/6,1qq2[8:9]/5qq6[8:9],,,{4},,,
{1},
{8}3h[1:2],,D5,A4,,,E5,,
{8},,D5,A4,,,E5,,
{8}6h[1:2],,D5,A5,,,E5,,
{8},,D5,A5,,,E5,,
{8}3h[1:2],,D5,A4,,,E5,,
{8},,D5,A4,,,E5,,
{8}6,5,4,3,4,5,4,3b/6b,
{2},{16}8,1,8,1,8<5[8:1]*-5[8:1],,,,
{4}8b>3[8:1]*-3[8:1],8<5[8:1]*-5[8:1],8,4x/6x,
{8}3/5,3/5pp5[4:1]*qq5[4:1],,,,,,7p3[8:1],
{8}7,1>4[8:1],1,8p4[8:1],8,3,3,,
{4}5v2[8:1]/6<1[8:1],5b/6b,3>8[8:1]/4v7[8:1],3b/4b,
{4}6-2[8:1]b,A6f/1-5[8:1]b,A1f/4-8[8:1]b,A4f,
{8}1,1w5[8:1]b,,A1f,,3x/7x,7x/3x>7[4:1],,
{4}7<3[4:1],3,7,1/8,
{4}2-5[8:1]/6v1[8:1],2/6,4h[4:1]/8h[4:1],,
{8}1b/2b-5[8:1],,2/8,7-4[8:1],,1/7,2>5[8:1],,
{8}2/8,7<4[8:1],,1/7,2,,1/2,,
{8}8/3-8[8:1],,3/7,6-1[8:1],,1/6,2,,
{4}1v4[8:1]*v6[8:1],1,3/7,4-1[8:1]*>1[8:1],
{4}4b-7[8:1]*<7[8:1],4-1[8:1]*>1[8:1],4,2x/8x,
{8}4/6,4qq5[16:5]/6pp5[16:5],,,,,,6,
{8}7,8,1,2/4,,1/5,1/5,,
{4}8/A3/B3/E3,2/A6/B6/E7,7/A4/B4/E4,1b-4[8:1],
{4}1/5x-8[8:1],5/3x-6[8:1],3/7x-2[8:1],{8}7/1x-4[8:1],1x,
{4}1x/5x-8[8:1],3x/5,1b/2bx,8b/7bx-4[8:1],
{4}7/2x-5[8:1],2/6x-1[8:1],6/3x-8[8:1],{8}3/7x-4[8:1],7x,
{4}7x/2x-5[8:1],2/6x,5bx/6b,8bx/4b>1[8:1],
{4}4/7x-3[8:1],7/2x-6[8:1],2/5x<8[8:1],{8}5/3x-7[8:1],3x,
{4}3x/6x-2[8:1],1x/6,1b/2bx,3b/8bx,
{8}7x/8,6,1/2x,3,1/8x,,1x-6[8:1]/8-6[8:1],2/7,
{4}1-3[8:1]/8x-3[8:1],1x-6[8:1]/8-6[8:1],1/8x,4b/8b<6[8:1],
{4}3x/8>2[8:1],4x/8-6[8:1],5x/8-2[8:1],{8}4x/8qq4[8:3]b,4x,
{4}8/3xv1[8:1]b,3x,2b/5bx,6b/1bx<7[8:1],
{4}4x/1>3[8:1],5x/1-7[8:1],6x/1-3[8:1],{8}1/5xpp1[8:3]b,5x,
{4}5x/2v4[8:1]b,2x,1bx/2b,3bx/8b-6[8:1],
{4}5x/8>2[8:1],4x/8<6[8:1],3x/8-2[8:1],{8}4x/8qq4[8:3]b,4x,
{4}8/3xv1[8:1]b,3x,2b/5bx,1bx/6b,
{8}3x/4,2,5/6x,7,1x/8,,1>3[8:1]/8x-3[8:1],2/7,
{4}1x-6[8:1]/8<6[8:1],1-5[8:1]/8x-4[8:1],1x/8,2bh[4:1]/7bh[4:1],
{1},
{4}A1/A2/B5/B6/D2/E7,A7/A8/B3/B4/D8/E3,E1/E5/Ch[4:1],,
E

Re:MASTER


名前:
コメント:

タグ:

+ タグ編集
  • タグ:
最終更新:2026年06月27日 22:42