BASIC
ADVANCED
EXPERT
MASTER
(170)
{4},,,
{8}E6,E5,E4,,2h[4:1],,{16}4,,,45,,,{8}57,57,,18,,24,,
{8}E4,E5,E6,,7h[4:1],,{16}5,,,45,,,{8}24,2h[8:1]/4h[8:1],,5h[8:1]/7h[8:1],,2h[8:1]/4h[8:1],,
{8}E4,E5,E6,,7h[4:1],,{16}5,,,45,,,{8}24,24,,18,,57,,
{8}E6,E5,E4,,2h[4:1],,{16}4,,,45,,,{8}57,8h[2:1],,,,{16}1-5[8:1],7,1,7,
{4}1x,A3f/A6/D3/D7/E3/E7,1x/8x,{16}25,,6,5,7,,7,,16,,3,4,2^5[8:1],,{8}2,6h[4:1],,
{8}8,,1,1,8,,47,{16}3,4,2,,{8}2,24,1,57,8,24,5,
{4}5-1[8:1]/7-4[8:1],57,1x/8x,{16}47,,3,4,2,,2,,38,,6,5,7^4[8:1],,{8}7,3h[4:1],,
{8}1,,8,8,1,,25,{16}6,5,7qq4[2:1],,{8}7,3h[4:1],,,,2h[4:1],,
{8},,1-4[8:1]/8-5[8:1],,18,,,36,36,,7^4[8:1],7,3,3,{16}2h[16:3],,,3h[16:3],
{8},4,4,,35,,26,1x,1x,,2^5[8:1],2,6,6,{16}7h[16:3],,,6h[16:3],
{8},5,5,,{4}1-3-8-4[8:3]b,,,{8}6^1[8:1],6,2,2,{16}3h[16:3],,,2h[16:3],
{8},1,1v2[8:1],,6v8[8:1],,,1x,1x,,{4}2-6[8:1],7-3[8:1],1qq4[4:1],
{4},5h[4:1],Cf,{8}8,8,17,,3/5-8[8:1],,8-5[8:1],,{16}4,,,3,
{8},25,2/5q2[4:1],,4h[4:1],,,,3,3,4,,6<2[4:1],,2v4[4:1],,
{4}4,3-8[8:1],7-3[8:1],4-1[8:1],6,{8}7,7,1^4[8:1],,8p4[8:1],,
{4}2-4[8:1],7^4[8:1],1pp4[8:3],6,{8}7,7,56,,47,36,25,,
{4}4/3-6[8:1],3/7-2[8:1],7/4-1[8:1],4/8-5[8:1],8/3>6[4:1],Cf,,{16}78,,,78,
{8},25,2/5h[4:1],,3,2,{16}12,,,12,,,47,,47,,,57,,,34,,25,,,24,
{8},56,4/7-2-6-3[2:1],,{4}3,1x,1x,3/4<8[4:1],,5>1[4:1],
{4},4<8[4:1],,{8}5,4,3/7-2[8:1],,{4}7/1V35[4:1],5V71[4:1],1,
{8}5,,4,4,5,5,{16}3,6,3,6,4,5,4,5,E5,,,,1-4[8:1]/8-5[8:1],,,,1x/8x,,,,
{4}4x/7xV51[4:1],7b/8,3V15[4:1],3b/4,7V51[4:1],7b/8,3V15[4:1],3b/4,
{8}7,,8,8,1-5[8:1]/2-4[8:1],,{4}1-7[8:1]/2-6[8:1],1q5[8:1]b/2^4[8:1]b,12,{8}7x,7x,48,,
{4}2-5[8:1]/6-1[8:1],26,3-8[8:1]/7-4[8:1],37,1>5[4:1],5<1[4:1],1,5,
{4}1^6[8:1]/2^5[8:1],12,7^4[8:1]/8^3[8:1],78,2x/5x,{8}12,3b/8b,,1b/6b,,56,
{4}4/7xV51[4:1],{64}8,E7f,,,,,,,{8},{4}3V15[4:1],{64}4,E3f,,,,,,,{8},{4}7V51[4:1],{64}8,E7f,,,,,,,{8},{8}3,,2b/6b,2b/6b,
{8},57,5h[8:1]/7h[8:1],,{4}1h[8:1]/6h[8:1],3h[8:1]/8h[8:1],2h[8:1]/4-8[8:1],4b/1-5[8:1],1b/7-3[8:1],4b/7b,
{4}4xb-8[8:1]/5xb-7[8:1],4x-2[8:1]/5x-1[8:1],4x-8[8:1]/5x-7[8:1],4x-2[8:1]/5x-1[8:1],4x-8[8:1]/5x-7[8:1],4x/5x,45,{8}3x/7x,3x/7x,
{8},2,1^4[8:1],5,6,7,{16}5x/7x,,,2/4>7[16:5],,,{8}1xb,,,1s5v2[8:3],,,,
{8},,3x/7x,{16}6,5,7,,1,8,,,3,4,2,,7,5,6,,3,4,2,,8,1,,,6,5,
{16}7-2[8:1],5,7,,{8}3-6[8:1],3,7-2[8:1],7,3-6[8:1],3,8<1[8:3],8,5h[2:1],,,,8xw4[8:1],8,
{8},,E1f,{16}3,4,2,,8,1,,,6,5,7,,2,4,3,,6,5,7,,1,8,,,3,4,
{16}2^7[8:1],4,2,,{8}6^3[8:1],6,2^7[8:1],2,6^3[8:1],6,1s5[4:1],,{4}4h[2:1],,5-1[8:1],
{4}5^2[8:1]*^8[8:1],5w1[8:1],,{8}2xb/8xb,,,3,{16}24,,,24,,,{8}15,1h[4:1]/5h[4:1],,
{16},,6,,57,,,57,,,48,,4/8h[16:3],,,6h[16:3],,,5,,4h[16:3],,,2h[16:3],,,{8}1,1,,
{4}B3/B4/E4f,B5/B6/E6f,B7/B8/E8f,2x/1x<5[4:1],,8>4[4:1],,1<5[4:1],
{8},,8,1,2-5[8:1]/6-1[8:1],,{4}26,3^8[8:1]/7^4[8:1],37,6/2>8q1[4:3],Cf,
{4},,,8h[4:3],,,,4h[4:3]/7h[4:3],
{4},,,5h[4:3]/6h[4:3],,,,4,
{4}4-6[8:1]b,4-8[8:1]b,4-1[8:1]b,4,{8}8x,8x,1^4[8:1]/7^4[8:1],,17,,{16}3x/5x,,,3,
{16}5,,6,,4x/7x,,,6,4,,3,,2x/5x,,,3,5,,6,,4x/7x,,,6,4,,{8}3,E5f/2xh[4:1],,
{4}4h[4:1],5h[4:1],7-4-8[8:3],{8}3,3,2,2,1b/7b,,7-5[8:1]/8-4[8:1],16,,,
{8}1-5[8:1]/2-4[8:1],38,,,78,1/6^3[8:1],,{4}6/2^7[8:1],2/4-8[8:1],48,{8}1,1>5[4:1],,
{4}5<1[4:1],1,6-3[8:1],6/2-7[8:1],2/5-8[8:1],5/4-1[8:1],47,2b/6b,
{8}7,18,18,,{4}1/2-6[8:1],25,8/7-3[8:1],47,1/2-4^5-1[4:1],,
{4}8^7v6[4:1],,1>8[8:3],{8}Cf,,,,,1b/8b,1b/8b,,12,3/4-7[8:1],
{8},8xb,8xb,,78,6/5-2[8:1],,1xb,1xb^6[8:1]b,2x^5[8:1]b,1x,2x,,7,7,5,
{8}46,7,18,2,3/5^8[8:1],,{4}5/1^4[8:1],1/8-4[8:1],58,3v8[8:1]/6^8[8:1],3^1[8:1]/6v1[8:1],
{4}3v8[8:1]/6^8[8:1],3^1[8:1]/6v1[8:1],36,{8}45,45,36,3^1[8:1]b/6^8[8:1]b,4x/5x,3x/6x,,2x/7x,2x/7x,36,
{16}45,,,,25,,,7/4-1[16:5],,,{8}5h[8:5],,,,,1w5[8:1],28,,,3x/7x,,
{8}56,,47,{16}3,4,2,,2,,38,,6,5,7^2[8:1],,{8}7,3h[4:1],,4,,8,8,
{8}1,1,25,{16}7,5,6,,{8}6,56,8,34,1,56,4,3-7[8:1]/4-8[8:1],,34,,
{8}1x/8x,,25,{16}6,5,7,,7,,16,,3,4,2^7[8:1],,{8}2,6h[4:1],,5,,1,1,
{8}8,8,47,{16}3,4,2pp5[2:1],,{8}2,6h[4:1],,,,{4}7h[4:1],,4-1[8:1]/8-5[8:1],
{8}48,,2-7[8:1]/6-3[8:1],37,2b/6b,,
E
Re:MASTER
最終更新:2026年08月24日 15:29