アットウィキロゴ

Heartbeats

アーティスト RAMM feat. 若井友希

BPM EASY BASIC ADVANCED EXPERT MASTER Re:MASTER
170 2 5 9 11+ 13 -

EXPERT MASTER Re:MASTER
譜面制作者 はっぴー mai-Star -

EASY


BASIC


ADVANCED


EXPERT


MASTER

(170){1},
5-2[4:3],6-1[4:3],
2p4[4:3],1q7[4:3],
4z8[4:3],7s3[4:3],
1s5[4:3],{8}8,7,,1,2,,1b,,
2h[4:1],,4,4h[4:1],,6h[4:1],,8-4[8:1],,8b,,,2,1,8,7,
7h[4:1],,5,5h[4:1],,3h[4:1],,1-5[8:1],,1b,,,,,,,
1h[8:3],,,2h[8:3],,,3h[4:1],,8h[8:3],,,7h[8:3],,,6q3[2:1],6h[8:7],
{4},,,3<2[4:3],,,,,

{16}1,,8,,7,,3,4,,6,5,,1,,8,,5,,4,,3,,6,5,,3,4,,7,,2,,
5,,4,,6,,3,4,,6,5,,3,,6,,4,,5,,3,,6,5,,3,4,,5,4,5,,
2,,3,,4,,8,1,,5,4,,37,,26,,7,,6,,5,,1,8,,4,5,,26,,37,,
1,,6,,3,,5,4,,7,{8}2,36,18,15,26,37,4h[8:3]/8h[8:3],,,,,
{16}2,1,,5,6,,8,7,,3,4,,15,,48,,7,8,,4,3,,1,2,,6,5,,26,,37,,
6,5,,1,2,,6,5,,1,2,,78,,34,,3,4,,8,7,,3,4,,8,7,,1,5,2,6,
2,1,,6,5,,3,4,,7,8,,15,,48,,7,8,,3,4,,6,5,,2,1,,26,,37,,
3,4,,6,5,,3,4,,6,5,,18,,27,,4/8h[8:3],,,6,{8},2b,,,,,

45,,,2,1,,7,8,,1-5[8:1],,1,8-4[8:1],,8,,
36,,,7,8,,2,1,,7-4[8:1],,7,2h[4:1],,,,
7h[8:3],,,4h[8:3],{4},2-5[8:1],8-4[8:1],1-5[8:1],7-4[8:1],,
1h[1:1],{8},3,,,7,,5,,,,1-6[8:1]/2-5[8:1],,,,
7,8,7,6,7,8,7,6,7b/8,8,6b/8,8,5b/8,8,4b/8,8,
2,1,2,3,2,1,2,3,1/2b,1,1/3b,1,1/4b,1,1/5b,,
4-1[2:1]/5,,,8h[8:3],{4},,,3/4-8[8:1],1,5-1[8:1]/6,
8,1/8^5[8:1],3,1^4[8:1]/8,6,{8},18,36,,,,
{16}1b,2,3,4,8b,7,6,5,2b,3,4,5,7b,6,5,4,

{8}2-6[8:1],,2,8h[4:1],,1-5[8:1],,8-4[8:1],,3,,3,,1v3[8:1],,,
6-2[8:1],,6,3h[4:1],,7^2[8:1],,3^6[8:1],,,,2,3,4,5,6,
7-3[8:1],7,8-4[8:1],8,1-5[8:1],1,2-6[8:1],2,3-7[8:1],3,4-8[8:1],4,5-1[8:1],5,6-2[8:1],6,
,,,8,1h[2:1]/7h[2:1],,,,,,,,15,26,37,48,
1-5[8:1],,,6,,6^1[8:1],,2^7[8:1],,4b,,,1-4[8:1]/8-5[8:1],27,,,
3,,24,6/8v3[8:1],,4v7[8:1],,2-6[8:1],,8b,,,3,4,5,6,
{4}7^2[4:1],2^5[4:1],5q4[4:1],4^7[4:1],7^2[4:1],2^5[4:1],5q4[8:1],,
{16}3,6,3,6,4,5,4,5,1,8,1,8,2,7,2,7,{4}1^4[4:1],4^7[4:1],7q6[8:1],,

{8}1,8,7,6,,,1,8,15,37,26,15,,,1,,
8h[8:3],{16},2-6[16:1],,,2,,7h[8:3],,,1-5[16:1],,,1,,6h[8:3],,,3-7[16:1],,,3,,{4},1,
{12}3,4,2,6,5,7,{8}18,27,36,45,36,{16}2,5,4,7,1,,8,1,7,2,6,3,5,4,
7h[8:3],,,5,,,2,,2h[8:3],,,4,,,7,,1b/5b,,,3b/7b,,,1b/5b,,4b/8b,,,2b/6b,,,4b/8b,,
{1},,E

Re:MASTER


名前:
コメント:

タグ:

+ タグ編集
  • タグ:
最終更新:2026年10月31日 20:34