BASIC
ADVANCED
EXPERT
MASTER
(163){8}4,5,4,6,4,7,4qq8[2:1],8,{4},,,1bx/7bx,{8}6,5,4/6,7,4/6>4[8:1],,,,3,4,5/3,2,5/3<5[8:1],,,,6,5,4/6,7,{4}4/6<1[4:1],1>4[4:1],4<7[4:1],7,2,1/8,{8}7,8,1/7,6,1/7>1[8:1],,,,2,1,8/2,3,8/2<8[8:1],,,,7,8,1/7,6,{4}1/7q3[4:1],3q7[4:1],7V13[4:1],3V57[4:1],7,1,{8}7-5[8:1],7h[2:1],,,,5x,5x/7x,,8-5[8:1],8h[2:1],,,,5x,5x/8x,,7-4[8:1],7h[2:1],,,,4x,4x/7x,3,2,E8,B1,C,E3,E5,D4,,2-4[8:1],2h[2:1],,,,4x,4x/2x,,1-4[8:1],1h[2:1],,,,4x,4x/1x,,2h[4:1],3,4h[4:1],3,2h[4:1],3,4,3,2/4,2/4,1/5,1/5,6/8,,,4,
{8}5b/7b,8,1-6[8:1]/2-5[8:1],3/8,1x/2x,,4,3,2/8,7,5-2[8:1]/6-1[8:1],7/4,5x/6x,,3h[4:1],,1,8,{16}7,,4,5<8[8:1],,,{8}3,2,1>4[8:1],,5,6,7,8/5,,1/6,,4b/2b,1,8-3[8:1]/7-4[8:1],6/1,8x/7x,,5,6,7/1,2,4-7[8:1]/3-8[8:1],2/5,4x/3x,,6h[4:1],,8,1,{16}2,,5,4>1[8:1],,,{8}6,7,8<5[8:1],,4,3,2,1/4,,6/3,,4h[4:1]/3,1,3h[4:1],1,4h[4:1],1,2,3,4,5,6,6,5/7,,4/5,,5h[4:1]/6,8,6h[4:1],8,5h[8:1],8,7,6bh[8:5]/3bh[8:5],{4},,,4/5,
{8}5h[4:7],,A3,B4,E3,C,E2,B8,,E7/B7,,A1,A2,A3,A4/E5,,4h[4:7],,A6,B5,E7,C,E8,B1,,E3/B2,,A8,A7,A6,A5/E5,,
6h[4:7],,A3,B4,E3,C,E2,B8,,E7/B7,,A1,A2,A3,A4/E5,,3h[4:3],,A6,B5,E7,C,8x,8x,,{24}2x,3x,4x,{8}5x,8,8w4[8:1],,8bx,,,,{4}2x>6>2[1:1]/6,8,8,1,1,8,8,7<3<7[1:1],2,1,1,8,8,1/8,1-3-8-4[8:5],8,7,6,5-7-4-8[8:5],4,3,2,1,8h[4:1]/7-5[8:1],7x,4h[4:1]/3-1[8:1],3x,8h[4:1]/7-3[8:1],7x,1,B1/B5/C,{8}7<5[8:1],7h[2:1],,,,5x,5x/7x,,8<5[8:1],8h[2:1],,,,5x,5x/8x,,7<4[8:1],7h[2:1],,,,4x,4x/7x,3,2,D6,E5,E7,C,E1,D2,,
2>4[8:1],2h[2:1],,,,4x,4x/2x,,1>4[8:1],1h[2:1],,,,4x,4x/1x,,2/4h[4:1],3,2h[4:1],3,4h[4:1],3,2,3,2/3,1/4,5/8,6/7,{4}6/7,1b/4b,
{4}E8,E8,E8,E8,E8/A2,E8/B2,E8/C,E8/B6,E4/A6,E4/B6,E4/C,E4/B2,1x/8x,5x/6x,3x/8x,,B7/1,B7/1,B7/2,B7/2,B7/3,B7/3,B7/4,B7/4,{8}3,3,5,5,{16}2,6,2,6,1,7,1,7,{4}2bx/6bx,2-7[8:1]/6-3[8:1],2bx/6bx,,D1,E2/E8,B3/A3/B6/A6,4>1[8:1]b/5<8[8:1]b,{32}4bx/5bx,A6/A3,D7/D3,A7/A2,D8/D2,,,,{4},,,{8}5/6,5/6,7/8,7/8,{32}1x,2x,3x,4x,5x,6x,7x,8x,{8}1bx,,
{8}6,7,{16}8,,2,1<6[8:1],{8},3,4,5>2[8:1],,2,1,8,5/7,,4/5,,6b/8b,5,4-7[8:1]/3-8[8:1],2/5,4x/3x,,1,2,3/5,6,8-3[8:1]/7-4[8:1],6/1,8x/7x,,2h[4:1],,5,4,{16}3,,1,2>5[8:1],{8},8,7,6<1[8:1],,1,2,3,4/5,,2/5,,4h[4:1]/3,1,3h[4:1],1,4h[4:1],1,2,3,4,5,6,6,5/7,,4/5,,5h[4:1]/6,8,6h[4:1],8,5h[8:1],8,7,1/6,{1}1bqq7q3[2:1]b/6bpp8p4[2:1]b,{8}5/6,5/6,3/4,3/4,6/8,6/8,1/2,1/2,,4/5,2-5[8:1]/7-4[8:1],,2bx/7bx,,E1/B1/B8/A8/A1,E
Re:MASTER
- MASTER譜面を追加しました。修正等ありましたらよろしくお願いします。 -- Sugar (2026-06-30 21:40:40)
最終更新:2026年06月30日 21:40