BASIC
ADVANCED
EXPERT
MASTER
(148){1},
{4}E6,E5,E4,(125){12},5,4h[768:683],(155){1}5h[1:1],(227),
(148){12}3-5[4:1]/6,,,5,,7,7,,6,6,,5/7h[4:1],,,4,6,,6,3,,3,4h[4:1],,,1h[4:1],,,3,,2,2,,34,3/4q1[4:1],,1,{4}1<6[4:1]*>3[4:1],,,47,3/6-4[4:1],{12}4,,2,2,,3,3,,2h[4:1]/4,,,5,3,,3,6,,6,5h[4:1],,,8h[4:1],,,6,,7,7<4[4:1],,4,{4}4p8[4:1]*>1[4:1],,,{12}27,,45,{4}45,
5>2[4:1]/6h[4:1],,7<4[4:1],,2<7[4:1],,5,46,{12}6x,,6,5-2[8:1],,,8-4[8:1],,,1,,,2,,2,{4}4-2[6:1]*-6-1[3:1],,,1<6[4:1]/2h[4:1],,3>8[4:1],,6>3[4:1],,1,28,{12}2x,,2,{4}1-6[8:1],4-8[8:1],5,7-3<6b[3:1]*-3>8b[3:1],,,6x/8x,
1b/5b,{12}3,4,2,5,5,4,6-8[8:1],,,5,,,2,1,3,8,8,1,7-5[8:1],,,4,,,2,4,3,5,5,4,6h[4:1],,,4,,7>2[3:1]/3p6[3:1],{4},,,
3b/5b<1qq4b[4:3],,E5/E6/B5,{12},,2h[2:1],,,,,,4,4,,1,28,,,4b>8pp5b[4:3]/7b,,,,,,E2/B1/B2,,,,,6h[2:1],,,,,,5,5,,8,1-5[8:1]/7,,,4b,,,,,7,7,,2,1-5[8:1]/3,,,4b,,,,,2,2,,7,6/8pp3pp6b[1:1],,,E5f/B4/B5,,,,,,7,,,,,8h[3:1],,,,6b,,45,45,,13,13,,,2b/8b<4pp1b[4:3],,,,,,E6/B5/B6,,,,,2h[2:1],,,,,,8,8,,3,24,,,1b>5qq8b[4:3]/6b,,,,,,E4/B3/B4,,,,,7h[2:1],,,,,,1,1,,6,5>2[8:1]/7,,,8b,,,,,7,7,,3,2/4<7[8:1],,,1b,,,,,2,2,,7,6/8pp3pp6b[1:1],,,E5f/B4/B5,,,,,,6,,,,,7h[3:1],,,,6b,,57,57,,48,{4}4/8-3b[8:1],
1bxh[4:15]/8b,,{32}B3,E4,,,{8},,,{32}E1,B8,,,{8},,,{32}E4,A4,,,{8},,,{32}B5,A5,,,{8},,,{32}B2,E3,,,{8},,,{32}A8,E1,,,{8},,,{32}B4,E5,,,{8},,,{32}3/B6,E6,,,{8},3<6[4:1],,{32}E1,B1,,,{8},,,{32}3/E6,A5,,,{8},3<6[4:1],,{32}E4,D4,,,{8},,,{32}3/B7,E7,,,{8},3>8[4:1],,{32}E4,A4,,,{8},,,{32}3/E8,B7,,,{8},3>8[4:1],,{32}B5,E5,,,{8},,,
{2}1-5-8-4-6b[4:5]/6h[4:1],6h[4:1],7h[4:1],7h[4:1],4h[4:1]/6-2-5-1-3[4:5],3h[4:1],4h[4:1],{4}5x,5x,4/8<6-2[2:1],3,2>4[4:1],1,8>2-6[2:1],5,6>4[4:1],7,8h[4:1],4h[4:1],1h[4:1],5h[4:1],2h[4:1],6V48[2:1],8,6,
7b,{12}7,8,6,1,1,8,2-4[8:1],,,5,,,6,5,7,4,4,5,3-1[8:1],,,8,,,7,8,6,1,1,8,2h[4:1],,,1,,38,,,56,5h[4:1]/6h[4:1],,,,,,
4b>8pp5b[4:3]/7b,,,E2/B1/B2,,,E4/E5/B4,,,6,,6h[3:1],,,,5,,5,7,,7,1,,1,2b/5b<1qq4b[4:3],,,E8/B7/B8,,,E5/E6/B5,,,3,,3h[3:1],,,,4,,4,2,,2,8>3[8:1],,,5b,,,4,,4,6,,6,1<6[8:1],,,4b,,,5,,5,3,,3,8qq5qq2b[1:1],,,E7f/B6/B7,,,E4/B3/B4,,,2,,,8,,8h[3:1],,,,7b,,45,45,,26,26,,,1b>5qq8b[4:3]/7b,,,E4/B3/B4,,,E1/E2/B1,,,7,,7h[3:1],,,,8,,2,2,,6,57,,,3b/8b<4pp1b[4:3],,,E6/B5/B6,,,E1/E8/B8,,,2,,2h[3:1],,,,1,,1,3,,3,4<7[8:1],,,2b,,,1,,1,7,,7,5>2[8:1],,,8b,,,7,,7,1,,1,6pp1pp4b[1:1],,,E8f/B7/B8,,,E3/B2/B3,,,6,,,5,,5h[3:1],,,,6b,,57,57,,13,3-8b[8:1]/1-5b[8:1],,,
{1}1bp8<3[2:3]/3b,,{12}3,4,5,3>7>3[2:1],4,5,,,,,,,6,5,4,6,5,4h[12:7],,,,,,,6,5,4,6<2<6[2:1],5,4,,,,,,,3,4,5,3,4,5h[12:7],,,,,,,3,4,5,2<6<2[2:1],3,4,,,,,,,5,4,3,5w1[2:1],4,3,,,,,,,{1},,,,,
E
Re:MASTER
最終更新:2026年06月27日 23:39