EASY
BASIC
ADVANCED
EXPERT
MASTER
(181){4}
1,,2,,7,7,{16}56,,4,5,4,,6,5,
6,,3,4,3,,6,5,6,,3,4,3,,6<3[8:3],5,{4}6,,,3-7[8:1]/4-7[8:1],
,5-2[8:1]/6-2[8:1],,3-8[8:1]/4-8[8:1],,5-1[8:1]/6-1[8:1],,45,
27,{8}36,5,{4}34,26,3>6[4:1]/4p5[4:1],,,18,
45,67,2-7[8:1]/3-6[8:1],,{16}57,,,24,,,36,,{4}1b/8b,,
3^8[8:1]/8,6^1[8:1],4p7[8:1],5q2[8:1],3^8[8:1],6^1[8:1],4p7[8:1],5,
1pp3[8:1]*qq7[8:1],,{8}46,37,{4}28,45,7p4[4:1]/8pp3[4:1],,,
1/6^1[8:1],3^8[8:1],5q2[8:1],4p7[8:1],6^1[8:1],3^8[8:1],5q2[8:1],4,
1pp3[8:1]*qq7[8:1],,{8}46,37,28,,27,{16},45,,,18,,{4}1-4[8:1]/8-5[8:1],1b/8b,
12,56,18,45,78,34,{16}3,6,4,5,3-8[8:1],,3,,
6-1[8:1],,6,,4-7[8:1],,4,,5,,5,,2,7,1,8,2,,56,,4h[16:3],,,3h[16:3],{8},2,2,,
4h[8:3],,8,8,56,,78,,7-3[8:1]/8-3[8:1],,,,6-4[8:1]/7-4[8:1],,,,
8h[8:3],,4,4,67,,45,,5^2[4:1]/6p1[4:1],,,,,1b,1b,1b,
5h[8:3],,1,1,34,,12,,{2}1-6[8:1]/2-6[8:1],2-5[8:1]/3-5[8:1],
3h[4:1]/6h[4:1],3h[4:1]/6h[4:1],4^1[8:1]/5^8[8:1],{8}27,8b,8b,8b,
7h[8:3],,4,4,56,,78,,7-4[8:1]/8-4[8:1],,,,7-4[8:1]/8-4[8:1],,,,
4h[8:3],,7,7,56,,8-5[8:1]*>5[8:1],,,,1s5[4:1]/2,,,2b,2b,2b,
5h[8:3],,2,2,34,,12,,18,27,36,,18,27,36,,
8,,8,8,6b,,1b/8b,,4q2[4:1]/5p7[4:1],,,,,,1b/8b,,
6v8[8:1],5,4,3,,12,12,,6<2[4:1]*q3[4:1],,,,,1,1,,
3-8[8:1]/4,,5,,1/2-5[8:1],,8,,37,26,15,4q8[8:1]/8q4[8:1],,,,,
3v1[8:1],4,5,6,,78,78,,3p6[4:1]*>7[4:1],,,,,8,8,,
5/6-1[8:1],,4,,7-4[8:1]/8,,1,,34,{16},18,,,56,,2b/7b,,,,,,3,4,
2,,6,5,7,,3,4,2,,6,5,7,,3,4,{8}2,15,26,37,{4}4b/8b,3-1[8:1]*-7[8:1],
,4-2[8:1]*-8[8:1],,5-1[8:1]*-3[8:1],,6qq2[4:1]*pp2[4:1],,,
{8}18,2,3,4,{4}35,1^6[8:1],1^4[8:1],1w5[16:1],1,3b/7b,
8-5[8:1]*-6[8:1],8>5[4:1],,,3-6[8:1]*-8[8:1],,{16}57,,57,,4b/8b,,6,5,
7,,3,4,2,,6,5,7,,3,4,2,,6,5,{8}7,48,37,26,{4}1b/5b,6-2[8:1]*-8[8:1],
,5-1[8:1]*-7[8:1],,4-6[8:1]*-8[8:1],,3qq7[4:1]*pp7[4:1],,,
{8}18,7,6,5,{4}46,8^3[8:1],8^5[8:1],8w4[8:1],8b,2b/6b,
1-3[8:1]*-4[8:1],1<4[4:1],,,{16}78,,,12,,,45,,2b/7b,,,,,,2,1,
3,,7,8,6,,2,1,3,,7,8,6,,2,1,{8}3,26,37,48,{4}1b/5b,3w7[8:1],
,4w8[8:1],,5w1[8:1],,{16}5,,36,27,1h[4:1]/8h[4:1],,,,,,27,36,
{8}45,7,37,7,{4}27,1-3[8:1]/8-4[8:1],1-5[8:1]/8-6[8:1],1>5[8:1]/8q5[8:1],1b/8b,56,
3^8[8:1]/7^4[8:1],3/7p1[8:1],,6,6-1[8:1]*-3[8:1],,{16}24,,24,,1b/5b,,7,8,
6,,2,1,3,,7,8,6,,2,1,3,,7,8,{8}6,37,26,15,4b/8b,,,8,
1^6[8:1],2,3,4,,7>3[4:1]*<3[4:1],7,,,,,{16}18,27,{8}3b/6b,,4b/5b,1b/8b,
,2,26,2,{4}27,1-5[8:1]/8-6[8:1],1-3[8:1]/8-4[8:1],1p4[8:1]/8<4[8:1],1b/8b,34,
2^5[8:1]/6^1[8:1],2q8[8:1]/6,,3,{16}78,,,12,,,45,,{4}2b/7b,,
1/6^1[8:1],3^8[8:1],5q2[8:1],4p7[8:1],6^1[8:1],3^8[8:1],5q2[8:1],4,
4qq2[8:1]*pp6[8:1],,{8}17,26,{4}35,45,1qq6[4:1]/2q5[4:1],,,
3^8[8:1]/8,6^1[8:1],4p7[8:1],5q2[8:1],3^8[8:1],6^1[8:1],4p7[8:1],5,
4qq2[8:1]*pp6[8:1],,{8}17,26,35,,36,{16},18,,,45,,4-1[8:1]/5-8[8:1],,,,4b/5b,,,,
27,,,45,,,18,,{4}1b/8b,2b/7b,
,{24},,,1b,2,3,4,5,6,7,8,1b,2,3,4,5,6,7,8,1b,2,3,4,5,6,7,8,{8}1b,,,
{24}8b,7,6,5,,,,,1b,2,3,4,{4},
{24}8b,7,6,{4}5,{24},1b,2,3,4,{4},
{24},,8b,7,6,5,,{8},,,{24}1b/8b,27,36,{8}45,,,
1,{16}8h[1:1],,,1h[16:13],,,{1},
2b/7b,{8},5qq5[2:1]/8-5[2:1],,,,,,,{1},,,E
Re:MASTER
最終更新:2026年10月13日 00:37