アットウィキロゴ

StargazeR

アーティスト 骨盤P

BPM EASY BASIC ADVANCED EXPERT MASTER Re:MASTER
195 2 5 8 10+ 12+ -

EXPERT MASTER Re:MASTER
譜面制作者 某S氏 Moon Strix -

EASY


BASIC


ADVANCED


EXPERT


MASTER

(195){2},,,27,
{8}4h[4:3]/5,,,7,,,8-5[2:1],,{1},
{8}2h[4:3]/4,,,8,,,5>1[2:1],,{1},
{8}4h[4:3]/7,,,2,{4},5<1[2:1]*q1[2:1],,,,,
2h[2:1]/7h[2:1],,,3h[2:1]/6h[2:1],,,45,,
2h[4:3]/3,{8},7,,,4>6[2:1],,{1},
{8}4h[4:3]/5,,,2,,,5-8[2:1],,{1},
{8}3h[4:3]/8,,,5,{4},4>7[2:1]*p7[2:1],,,,,
4h[2:1]/5h[2:1],,,3h[2:1]/6h[2:1],,,2<5[4:7]/7>4[4:7],,
{1},,

{8}1b,1-5[8:1],,6-1[8:1],,2,3,,8,8-4[8:1],,3-8[8:1],,7,6,,
1,1-5[8:1],,6-1[8:1],,2,3,,48,4-1[8:1]/8-5[8:1],,,,,17,,
7,7-4[8:1],,3^8[8:1],,7,6,,2,2-5[8:1],,6^1[8:1],,2,3,,
7,7-4[8:1],,3^8[8:1],,7,6,,15,1^4[8:1]/5^8[8:1],,,,,35,,
1,1-5[8:1],,6V82[8:1],,3,4,,8,8-4[8:1],,3V17[8:1],,6,5,,
1,1-5[8:1],,6V82[8:1],,3,4,,48,4^1[8:1]/8^5[8:1],,,,,28,,
2,2^5[8:1],,6V82[8:1],,3,4,,7,7^4[8:1],,3V17[8:1],,6,5,,
5>1[8:3],,,1<5[8:3],{4},5p1[4:1],1p5[4:1],,,5-8[4:1],

2h[4:1],,,17,4,{8}28,2/8-5[8:1],,4,,3h[8:5]/4h[8:5],
,,,,,,28,,5,,17,1-4[8:1]/7,,5,,7h[8:5]/8h[8:5],
,,,,,,56,,2,,17,1/7-2[8:1],,4,,1h[8:5]/2,
{4},,2-7[4:1],7-3[4:1],3-8[4:1],8-5[4:1],5-2[4:1],2,
8h[2:1],,1,4h[4:5]/6,2,7,1,8-5[4:1],
8,,5,8h[4:5]/2,6,3,5,4-1[4:1],
4,,3h[8:3],{8},6^1[8:1],,2,,,8>4[4:1],,4<8[4:1],,
8,,,1-4[8:1],{2}1,5h[4:1]/6h[4:1],7h[4:1]/8h[4:1],

{8}3,4,3,4,3h[4:1],,8,,6,5,6,5,6h[4:1],,1,,
{2}5-2[8:1]/6h[4:1],5-2[8:1]/6h[4:1],5-1[8:1]/7h[4:1],5-1[8:1]/7h[4:1],
{8}7,8,7,8,7h[4:1],,4,,2,1,2,1,2h[4:1],,5,,
{2}3h[4:1]/4-7[8:1],3h[4:1]/4-7[8:1],2h[4:1]/4-8[8:1],2h[4:1]/4-8[8:1],
{8}3,4,2,4,3h[4:1],,8,,6,5,7,5,{4}6h[4:1],1,
3/4^7[8:1],1,3/4^7[8:1],1,3/4q8[8:1],1,3/4q8[8:1],1,
{8}2,1,3,1,2h[4:1],,5,,7,8,6,8,{4}7h[4:1],4,
5^2[8:1]/6,8,5^2[8:1]/6,8,5p1[8:1]/6,8,5p1[8:1]/6,8,
2-5[8:1],7-4[8:1],2^5[8:1],7^4[8:1],1q6[8:1],8p3[8:1],1,27,
{8}3,4,3,2b/5b,,,6,5,6,4b/7b,,8,1,2,3>6[4:1],,

3b/5h[2:1],,,,4,,2^5[8:1],1,2,,,6^1[8:1],,,2,,
3^6[4:1],,6^1[4:1],,1^4[4:1],,4p8[4:1]*q8[4:1],4,,,,,,3,4,5,
6^3[8:1],,3,,2,7,,4-2[8:1]/5-7[8:1],,45,,18,,27,,,
4/5h[8:3],,3,3h[8:3],,6,6,,1h[4:1]/5h[4:1],,,3h[4:1]/7h[4:1],,,4-1[8:1]/5-8[8:1],,
4b/5b,,,,27,,3-8[8:1],4,3,,,6-1[8:1],,,2,,
1-7[4:1],,7-5[4:1],,5^2[4:1],,2-7[4:1],2,{4},,7h[4:1],5h[4:1],
3h[4:1],1,7^4[8:1],1,2^5[8:1],8,6h[4:1],1,
3h[2:1]/8,,2-7[4:1],7-4[4:1],4-8[4:1],8-5[4:1],5-2[4:1],2<2[4:7],

{1}8b,,
{8}3-8[8:1],,5,,6,6,57,,6-1[8:1],,4,,3,3,24,,
3^8[8:1],,5,,6,6,57,,6^1[8:1],,4,,3,3,24,,
3^8[8:1],,5,,6,6,57,,6^1[8:1],,4,,3,3,24,,
8b,17,,1-5[8:1],8,1,,5-1[8:1],4,5,,1-5[8:1],8,1,,5-1[8:1],
4,5,,2-6[8:1],1,2,,6-2[8:1],5,6,,38,38,{16},56,{8},18,
2,13,,8-4[8:1],1,8,,4-8[8:1],5,4,,8-4[8:1],1,8,,4-8[8:1],
5,4,,7-3[8:1],8,7,,3-7[8:1],4,3,,16,16,{16},34,,,18,,
{1}1b>8[4:15]/8b,,,,,,E

Re:MASTER


名前:
コメント:

タグ:

+ タグ編集
  • タグ:
最終更新:2026年10月13日 00:40