アットウィキロゴ

月に叢雲華に風〈でらっくす〉

アーティスト 幽閉サテライト(Produce:嵯峨飛鳥 Arranged:Iceon)

BPM BASIC ADVANCED EXPERT MASTER Re:MASTER
160 2 6 9 12+ -

EXPERT MASTER Re:MASTER
譜面制作者 Jack サファ太 -

BASIC


ADVANCED


EXPERT


MASTER

(160)
{4},,5,5,
B1/B2/B3/B4,,E2/E8,E4/E6,{16}E7,,,C,,,E3,,{2},
B5/B6/B7/B8,{16}E2,,,E3,,,E4,,E8,,,E7,,,{8}B4/B5,,,C,,
B1/B2/B3/B4/B5/B6,,,78,,6,6,4,4,5,{2}3h[4:1]/6h[4:1],1>5[4:3]/5<5[2:3],,,{4},1,3b/7b,

6-4[8:1],{8}3,3h[4:1],,4,25,,2-6[8:1],,7,7h[4:1],,8,16,,
2,3,46,7,{16}7h[16:3],,,8h[16:3],,,{2}1-5[8:1],{8}3x/7x,,12,12,,
3-8[8:1],,7,7h[4:1],,8,16,,5-1[8:1],,2,2h[4:1],,1,38,,
56,4/7x-4[8:1],,4,3x-8[8:1],,8,7x-3[8:1],,3,{4}2hx[4:1],1,38,

{2}4/5h[1:1],E5,Ch[2:1],{8},,8,8,1h[8:3],,,3h[8:3],,,4h[4:3],,{4}6h[4:3],,,{8}5,6,
4/7h[8:3],,,5h[8:3],,,{4}4h[4:5],E4,E3,E2,E1,{1}Ch[4:3],
{4}1-4[8:1]/2-4[8:1],1-6[8:1]*-7[8:1],,2x/5x,

{8}3b/7b,6,4,3,26,2,5,3,37,7,5,4,35,2-6[8:1]/6,,27,
7,8,1,24,1,8,{4}5/7hx[4:3],E6,E1,B3/E4,{8}8,8,
1-5[8:1],,6,6,5x-1[8:1],,8,8h[4:1],,1,2,3,4/7x-4[8:1],,3>5[8:5],,{1}C,
{4}E1/E2/E8,E4/E5/E6,E3/Cf/E7,,

{8}3h[4:1]/7,,5,3h[4:1],,4,2,{4}3/4h[2:1],B3,B1/E2,{8}5,35,,
6h[4:1]/2,,4,6h[4:1],,5,7,{4}6/5h[2:1],B6,B8/E8,{8}4,64,,
3h[8:3],4,5,6h[8:3],5,4,3,{2}3-1[8:1]/6-4[8:1],{8}3x/7x,,2,1,8,
{16}7h[16:3],,,6h[16:3],,,5,,3h[16:3],,,2h[16:3],,,1>8[8:5],,{1}1x/8x,
{4}B1/B8/E1/Cf/B4/B5/E5,,8-4[8:1],1b/8b,

3x/4x^7[8:1],2h[4:1],1-4[8:1]*-6[8:1],,{16}3h[16:3],,,4,3,,24,,{4}1q5[8:1]/5q1[8:1],15,
{16}2x/7x,,,6,5,,34,,25,,,,{1}1xqq6[2:1]/2xq5[2:1],{8}4x/7x,,
7,7,16,{16}6,5,,5,{8}4,34,2,6,6,{16}47,,7,8,,8,{8}1,1<2[2:1]/2,3,{4}4h[2:1],,,{8}1x/8x,1x/8x,
,B4/E4,B8/E8,B2/E2,B6/E6,Cf,,,

{4}2x/1x^6[8:1],3h[4:1],5-1[8:1],2h[4:1],{16}4h[16:3],,,3,4,,45,,{4}5-2[8:1]/7-4[8:1],5x/7x,
1-6[8:1]/8-4[8:1],1x/8x,{16}25,,,6,5,,47,,{4}4x-8[8:1]/7x-4[8:1],4x/7x,5x-1[8:1]/2x-5[8:1],5x/2x,
3b/7b,{8}25,2^5[8:1]/5,,8,7,6,{4}5/1w5[4:1],,,3qq7[4:3]/7qq3[4:3],{1},
{16}1x,8,2,7,3x,6,4,5,{32}4x,3x,2x,1x,8x,7x,6x,5x,E5,E4,E3,E2,E1,E8,E7,E6,

{1}Cf,{16}E7,,,C,,,E3,,{2},B4/B5,{16}E8,,,E1,,,E2,,E3,,,C,,,E7,,{4},3h[1:1],
{1}5h[4:5],4h[4:3],{24}E6,E5,{1}E4,,,,E

Re:MASTER


  • MASTER譜面を追加しました。修正等ありましたらよろしくお願いします。 -- けもがみ (2026-04-11 00:13:22)
名前:
コメント:

タグ:

+ タグ編集
  • タグ:
最終更新:2026年04月11日 00:13