| アーティスト |
曲:本田正樹(Dream Monster)/歌:7EVENDAYS⇔HOLIDAYS [井之原 小星(CV:ももの はるな)、柏木 咲姫(CV:石見 舞菜香)] |
BASIC
ADVANCED
EXPERT
MASTER
(276)
{1},,
{8}2,4,,4,2,,7,5,,5,7,,E6,,E4,,
{8}3,4,,4,2,,6,5,,5,7,,E6/E8,,E2/E4,,
{8}2,4,,4,3,,7,5,,5,6,,1x/8x,,1x/8x,,
{8}2/7,2/7,,6h[4:1],,4,4,,{4}5/7,2/4,1b/7b,,
{4}5<7[8:1],3x,1x-5[8:1]/2x-4[8:1],,8p3[8:1],3,1b,2b/8b,
{4}5h[4:1]/6-8[8:1],,1w5[8:1],,3x/7x,2>5[4:1]b/8<5[4:1]b,,,
{8}6,5,7,2,4,3,7,8,7,2,1,2,8x,8x,1x,1x,
{4}7xq5[8:3]/8xV25[8:3],,,,4/6,3/5,2b/6b,,
{2}7<3[4:3],2,2>6[4:3],7,
{2}7<6v5>3[4:5],2,2,2,
{2}6h[1:1],8,3h[1:1],1,
{4}5,6<8[4:1],4,,{8}5x,4x,3x,2x,1hx[4:1]/5hx[4:1],,,,
{4}2,3/4,7,5/6,3>1[4:1],4,6<8[4:1],5,
{4}4qq7[4:3],8,8,8,8,8w4[4:1]b,,,
{4}6>3[4:1],3,2<7[4:1],7,6-1[4:1],1,2,3,
{4}4/5,5/6,6p3[4:3]/7pp2[4:3],,,,,1x,
{4}1hx[4:3],4,5,6,7h[4:5],,E5,E4,
{4}E3,E2,,,1/7,7/1-5[8:1],,6,
{4}4/6pp3[1:1],,5,5,,4,,1/7,
{4}2-4[8:1]/6-4[8:1],,1/7,2/8,3<5[8:1]/7<5[8:1],,2/8,7/1V35[4:1],
{4}5V71[4:1],,,7<8[2:1],Cf,,,,
{4}5/7,6/7,5h[4:1]/8h[4:1],,3/5,2/3,1h[4:1]/4h[4:1],,
{8}7,7h[4:1],,5,,1/8,1/8,,2,2h[4:1],,4,,1/8,1pp4[2:1]/8qq5[2:1],,
{4},,,2x/7x,7x/2x>5[4:1],,1b,,
{8}8bhx[4:1],,4,4,6bhx[4:1],,E4f,,3x/8bhx[4:1],,5,5,6bhx[4:1],,E5f,,
{8}4x/8bhx[4:1],,5,5,6bhx[4:1],,E5f,,3/7,,2/6,2/6,,3/4,3>5[8:5]/4q5[8:5],,
{4},,,,3/7,2b/8b,2b/8b,,
{4}7/8,5/7,2/4,1/2,1/2,{8}3/8,3/8,,2/6,2/6,,
{8}1bhx[4:1],,5,5,3bhx[4:1],,E6f,,5x/1bhx[4:1],,4,4,3bhx[4:1],,E5f,,
{8}5x/1bhx[4:1],,4,4,3bhx[4:1],,B5f,,2/6,,4/7,4/7,,5/6,5p4[8:5]/6<4[8:5],,
{4},,,,2/6,1b/7b,1b/7b,,
{4}1-5[8:1]/2-5[8:1],,7-4[8:1]/8-4[8:1],,1,{8}2/8,2/8,,1x,1x,1x,
{8}1x-3<4[4:1]*-7<6[4:1],,,,,5x,5x,5x,5x>4-2[16:3]*<6-8[16:3],,,,,1x,1x,,
{4}4/2h[4:1],5,5/7h[4:1],4,2q6[4:1]/6q2[4:1],,,,
{4}7x/8x,7x/8x,1x/2x,1x/2x,{8}3-8[4:1],,,6-1[4:1],,,4>5[1:1]b,,
{1},,
{8}1x-5[4:1]/6x-8-5[4:1],,,,,,,2x-4-1[4:1]/5x-1[4:1],{1},
{8}2h[4:1]/8h[4:1],,,,1/7,1>4[4:1]/7<4[4:1],,,,,,,2/6,,,,
{8}3,5,3,5,3,5,3,5,1,7,1,7,2,6,2,6,
{8}3x/5x,,6,5/6,,3,3/4q5[2:1],,{1},
{4}5bx/6bx,5bx/6bx,7bx/8bx,7bx/8bx,{8}7bx-4[4:1]/8bx-4[4:1],,,,,,,2-6[4:1],
{8},8,8,,{4}7h[4:1],4-1[4:1],,5-8[4:1],,4,
{8}7,5,,2,4,,6,5,,3,4,,1/2,,1/2,,
{8}3,4,,6,5,,2,4,,7,5,,7h[4:1]/8h[4:1],,,,
{4}7<4[8:1]/8p3[8:1],,1-5[8:1]/2-8[8:1],,7x,6x>3[4:1],1,2x-7-3-6[4:3],
{4}7hx[1:1],,,,5,5/6,3/4,1/2,
{8}3b/8b,,2-8[8:1],,,6-1[8:1],,,3-8[8:1],,,5-1[8:1],,,2h[4:1],,
{2}3b,2b,1bh[2:1],{32}A8f,B8,C,B4,A4,,,,{4},
{8}2-6[8:1],,7,7h[4:1],,5,5h[4:1],,3,3h[4:1],,1,1,,4/3>6[2:1],,
{4}5,5,5,5,4/6,3/5,2h[4:1]/4h[4:1],,
{4}D3,E4,E5,D6,E7,E8,D1,E2,
{8}E3,,D4,A4,E5,B5,E6,,{4}7h[4:1],4,3/8,,
(300)
{2}3-8[4:1],6-1[4:1],4-8[4:1],5-1[4:1],
{16}3,4,5,6,7,8,1,2,3,4,5,6,7,8,1,2,3,4,5,6,7,8,1,2,3,,,,,,,,
{4}C/E5,D6,E7,D8,C/E1,D2,E3,D4,
{4}C/E5,D6,E7,D8,C/E1,D2,E3f,,
(320)
{8}6-1[4:1]b,,,2-5[4:1]b,,,{4}8V64[2:1]b,,1,1,,
{2}B2/B3/E2/E4f,B6/B7/E6f/E8,Cf,A4/A5/D5/E4/E6,
(340)
{4}1x-6[4:1],6x-3[4:1],,,7x-2[4:1],2x-5[4:1],,,
{4}B1/E2,B7/E8,B3/E4,B5/E6,4x>8[4:1],,6,,
(350)
{4}7/8,7-5[4:1]/8-4[4:1],,,A2f/B1/E2,,A3f/B4/E4,,
(360)
{4}6,7-4[4:1]/8-5[4:1],,,A1/B2f/E2,,B4/B5/E4f,,
(370)
{4}6,7-4[8:1],3,2-5[8:1],7,8-4[8:1],2,2,
{4}2/4,1/8,5/7,4/5,2/4,1/8,5/7,5/4xqq4p7<4[0.1622##1.7321],
(276)
{1},,
{4},,2h[1:1],,,5,6h[1:1],,
{4},3,2h[4:3],,,4pp4[8:5]*qq4[8:5],,,
{2},2-6[4:1],8v3[2:1]*v5[2:1],,
{2}2x/6x,3h[4:1]/7h[4:1],2h[4:1]/5h[4:1],4h[4:1]/8h[4:1],
{2}2h[4:1]/6h[4:1],3<6[8:3],7,7p3[8:3],
{2}2,2<7[8:3],6p4[8:7],,
{2},2-4v5-7[4:3],8h[1:1],,
{4}5,5,4/7,4/7,2/5,2/5,3/6,4-1[8:1]/5<7[8:1],
{4}4b/5b,,3-8[4:1]b,{8}5,5,6<1[4:1]b,,B4f,,3-8[4:1]b,,5,5,
{4}6<1[4:1]b,E4f,3-8[4:1]b,{8}4,5,6<1[4:1]b,,E5f,,3-8[4:1]b,,4,5,
{4}6<1[4:1]b,4b>5[8:5]b,,,,,2/7,1b/8b,
{4}1b/8b,,6h[4:1],8h[4:1],1h[4:1],3h[4:1],4z8[8:3]b,,
{8},,,,7x/8xV64[4:1]b,8x/7xv5[4:1],,,,,,,1x/2xpp4[4:1],2x/1xz5[4:1]b,,,
{8},,,,1b/8b,1b/8b,,2b/7b,,3b/6b,3b/6b,,4b/5b,,3xq8[4:1]b/6xp1[4:1],,
{4},,1/8,6/7,4/5,2/3,1/8,2b/7b,
{4}2b/7b,,8<4[4:1],4>8[4:1],8,4,
{8}8,,1/7,1/7,,8bx,8bx,8bx,8bx<7-5[16:3]*>1-3[16:3],,,,,4bx,4bx,4bx,4bx-2<1[16:3]*-6<7[16:3],,,,
{8},8bx,8bx,,{4}5/7h[4:1],4,4/2h[4:1],5,3>8[4:1]/7<4[4:1],,
{4},,1-5[8:1],7-4[8:1],3,3,2-6[4:1]/8-4[4:1],,
{8},,3b/7b,,2,4,2,4,3h[4:1],,6,5,6,5,7h[4:1],,
{8}1x,,2x/6x,,3,4,2,4,1h[4:1],,8,5,7,5,6h[4:1],,
{8}2x,,2x/6x,,3,5,3,5,1hx[4:1],,6,4,6,4,8hx[4:1],,
{8}5b,,3b/6b,,2,2h[4:1],,1,,3/5,3/5,,7,7h[4:1],,8,
{8},4/6,4qq1[2:1]/6pp1[2:1],,,,,,,,{4}3x/7x,2/6,1-4[8:1]/7b<4[8:1],
{8}1x/7x,
E
Re:MASTER
- MASTER譜面を追加しました。BPMは暫定です。修正等ありましたらよろしくお願いします。 -- Sugar (2026-08-16 23:24:30)
- MASTER譜面の一部BPMとスライドの長さを修正しました。追加修正等ありましたらよろしくお願いします。 -- なぎさ (2026-08-17 01:25:41)
最終更新:2026年10月04日 15:35