アットウィキロゴ

回る空うさぎ

アーティスト Orangestar

BPM BASIC ADVANCED EXPERT MASTER Re:MASTER
120 2 6 8 12 -

EXPERT MASTER Re:MASTER
譜面制作者 はっぴー はっぴー -

BASIC


ADVANCED


EXPERT


MASTER

(120)
{8},,,,,,,
{8}5,6h[4:7],,
{4}5,5,7,7,8,8,
{8}5,4,3h[4:7],,
{4}4,4,2,2,1,1,4,6h[2:1],5,4h[2:1],5,7h[2:1],5,3h[4:1],
{8}4,4,2h[2:1],,
{4}4,5h[2:1],4,3,2^4[8:1]/6^4[8:1],,5/3h[4:1],
{8}6,5,4/6,3,6,5,4/6,3,7,5,4/7,3,8,3,4/8,5,6,5,4/6,3,6,5,4/6,3,7,5,4/7,3,8,3,4/8,5,6,8,1/6,2,5,8,1/5,2,6,8,1/6,2,7,2,1/7,8,6,8,1/6,2,5,8,1/5,2,6,8,1/6,2,7,2,3/7pp5[2:3],4,5,,
{4}5,4,4,3,3,4,2qq4[2:3],4,4,6,6,5b,5b,5h[4:1]b,4>8[4:1],
{8}6,5,4<8[4:1],4,2,3,4>8[4:1],4,6,5,4q8[4:1],4,3,2,1>5[4:1],1,5<1[4:1],,1>5[4:1],,5,,1,1h[4:1],,3,3>7[4:1],,4,,5<1[4:1],,3,4,5>1[4:1],5,7,6,5<1[4:1],5,3,4,5p1[4:1],5,6,7,8<4[4:1],8,4>8[4:1],,8<4[4:1],,4,,8,8h[4:1],,6,6<2[4:1],,
{4}5,4,3^5[8:1],
{8}6,6,7^5[8:1],,4,4,3^5[8:1],,6,6,7^5[8:1],,4,4,3h[2:1],,4,5,6h[2:1],,5,5,4h[2:1],,
{4}E5,5h[2:1],E5,
{8}4,5,4/6,3,6,5,4/6,3,7,4,3/7,2,6,1,2/8,7,6,5,4/6,3,6,5,4/6,3,7,4,3/7,2,6h[4:1],,1b>5[4:1],,7,8,1<5[4:1],1,3,2,1>5[4:1],1,7,8,1-6[8:1],1,1-4[8:1],,
{4}1-5[8:1],1/4>8[4:1],8<4[4:1],4,
{8}7,7^2[4:1],,3,3q7[4:1],,7,,8<4[4:1],,2,1,8>4[4:1],8,6,7,8<4[4:1],8,2,1,8-3[8:1],8,8-5[8:1],,
{4}8-4[8:1],8/5<1[4:1],1>5[4:1],5,
{8}2,2^7[4:1],,5,5-8[4:1],,3,,1,1,2b/8,7,5/6,7,1b/8,2,3/4,2,1b/7,6,5/7,8,1b/8,2,4b/5,3,2b/4,1,2/8,7,7/8b,6,5/7,4,3b/5,4,2b/6,4,1b/5,4,3b/5,6,4b/8,1,1/2,3,2b/4,1,7/8,6,5b/6,7,2/8,1,1b/8,2,3b/4,5,2b/6,1,7/8,6,2b/8,5,1b/7,3,2b/8,5,1b/7,4,1/2b,5,7/8b,4,3b/5,6h[4:1],5,4,3,3h[4:1],4,5,4/6h[8:1],3,3h[8:1],5,7h[8:1],4,5,5,4/6h[8:1],3,3h[8:1],5,6h[8:1],5,4,4,3/5,6,6,5,4,,3/6,,7,6,4/5,3,7,6,4/5,3,7,6,4/5,3,2/4,3,4/5,6,7,6,4/5,3,7,6,4/5,3,7,6,4/5,3,2/4,3,4/5,6,6/4^2[8:1],,
{4}E5,5^7[8:1],E5,4^2[8:1],E5,5,6,6h[2:1],,5h[2:1],,4h[2:1],,
(105)
{8}B4,B3,B5,B6,
E

Re:MASTER


名前:
コメント:

タグ:

+ タグ編集
  • タグ:
最終更新:2026年07月18日 19:01