BASIC
(145)
{2},,,,4xh[1:1],,,,4,4,4,,5h[1:1],,,,5,5,5/4,,3,3,4,,6,6,5/4,,4,4,3,,2,2,1/8,,8,8,7,,6,6,5/4,,{1}5h[2:1]/6h[2:1],5/6,7h[2:1]/8h[2:1],7/8,1h[2:1]/2h[2:1],1/2,3h[2:1]/4h[2:1],3/4,5-8[4:3],,1-4[4:3],,5-1[4:3],,2-6[4:3],,
{2}8bx,8,7,7,6,6,5/4,,4,4,3,3,2,2,1b/8b,,1,1,2,2,3,3,4/5,4/5,5,5,6,6,7,7,8b/1b,,
{1}B8,B1,B7,B2,B6,B3,B5,C,
{4}8b,8,8,,7,,7,,6,6,6,,5,,5/4,,4,4,4,,3,,3,,2,2,2,,1/8,,1/8,,1,1,1,,1/2,,1/2,,3,3,3,,4/5,,4/5,,5,5,5,,5/6,,5/6,,7,7,7,,1xh[1:1]/8xh[1:1],,,,,,,,
{2}8h[1:1],,,,8,8,8,,1h[1:1],,,,1,1,1h[4:3]/8h[4:3]
E
ADVANCED
(145)
{1},,{4}2,2,2,,3,3,3,,4,4,4,,5/6,,5/6,,7,7,7,,6,6,6,,5,5,5,,4/3,,4/3,,{2}2h[2:1],1,3h[2:1],4,6h[2:1],5,7h[2:1],8,{4}7,7,7/8,,6,6,6/5,,4,4,4/3,,2/1,2/1,2/1,,2,2,2/1,,3,3,3/4,,5,5,5/6,,7/8,7/8,7/8,,7-4[2:1],,,,3-6[2:1],,,,7-3[2:1],,,,2,,2/1,,2-5[2:1],,,,7-3[2:1],,,,1-5[2:1],,,,6,,6/5,,B7,B6,B5,,B2,B3,B4,,B7,B6,B5,B4,B3,B2,C,,B1,B2,B3/B4,,B8,B7,B6/B5,,B3,B4,B5,B6,C,,,,
{4}2,2,1,1,8,8,8/7,,6,6,7,7,8,8,2/1,,2,2,3,3,4,4,5/6,,7,7,6,6,5,5,4/3,,3,3,2/1,2/1,8,8,8/7,,6,6,7/8,7/8,1,1,1/2,,2,2,3/4,3/4,5,5,5/6,,7,7,6/5,6/5,4,4,4/3,,
{2}3h[2:1],4h[2:1],5h[2:1],6,6h[2:1],5h[2:1],4h[2:1],3,2h[2:1],3h[2:1],4h[2:1],5,7h[2:1],6h[2:1],5h[2:1],4,
{4}3b,3,2/1,2/1,8,7,6/5,,6,6,7/8,7/8,1,2,3/4,,2,2,3/4,3/4,5,6,7/8,,7,7,6/5,6/5,4,3,2/1,,3,3,2/1,2/1,8,8,8/7,8/7,6,6,7/8,7/8,1,1,1/2,,2,2,3/4,3/4,5,5,5/6,5/6,7,7,6/5,6/5,4,4,4h[2:1]/3h[2:1],,,,,,
{4}4,3,2,1,8,7,6/5,,5,6,7,8,1,2,3/4,,4,3,2,1,8,7,6,5,4,3,2,1,1/8,1/8,2bx/7bx
E
EXPERT
MASTER
(145)
{4}3h[2:1]/4h[4:35],,,C,3h[2:1],,,C,3>5[2:1],,,,5<3[2:1],,,,3,3-7[4:1],,,7,7-3[4:1],,,3,1^3[4:1],,,3,6<3[4:1],,,3,1,5,7,7/8,1/2,2q6[8:1]/3-6[8:1],2b/3b,
{16}7x/8x,,7/8,,1,1,,
{8}6,5,4,
{16}3,3,,1x/2x,,1/2,,8,8,,
{8}3,4,5,
{16}6,6,,7x/8x,,7/8,,1,1,,
{8}6,5,4,
{16}3,3,,
{8}3/4,,3/4,,2q6[8:1]/3-6[8:1],1/4,2/3,,5/7,,
{16}7,5,6,4,5,,,,3-5[8:1]/5-7[8:1],,,,3/5,,,,7,5,6,4,5,,,,4/6,,,,7,5,7,5,6,,,,7,5,7,5,6,,,,5/6,,4/5,,3,4,3,,
{8}2-5[8:1]/6-1[8:1],,,,5/1V63[4:1],1/5h[4:1],,,,,
{16}4x,4x,,,
{8}4/2V58[4:1],2/4h[4:1],,,,,
{4}7<3[4:1]/8<3[4:1],,,1-5[8:1]/8-4[8:1],1/8,
{16}3x/4x,,,2x/3x,,,
{8}1x/4x,2q6[8:1]/3-6[8:1],,2/3,,B7,,2,
{16}4,4,3,,,,
{8}A5/B5,,2/4,,3,
{16}5,5,4,,,,A6/B6,,,,3,4,3,,E3,,E5,,3,4,3,,
{8}E3,E5,3/4,3/4,B2/E3,B5/E5,C,,B7/B8/E8,,1/2V57[4:1],2/1h[4:1],,,,,
{16}8x,8x,,,
{8}8/7V42[4:1],7/8h[4:1],,,,,
{4}1>6[4:1]/2>6[4:1],,,1-5[8:1]/8-4[8:1],1/8,
{16}3x/4x,,,2x/3x,,,
{8}1x/4x,2q6[8:1]/3-6[8:1],,
{4}2/3,7xs3[4:1],3s7[4:1],7,8,5/6,6/7,
{8}6-3[8:1]/7p3[8:1],5/8,6/7,,
{4}2z6[4:1],6z2[4:1],2,1,3/4,2/3,
{8}2q6[8:1]/3-6[8:1],1/4,2/3,,
{4}6x/5x^7[8:1],4/5,5/6^4[8:1],6/7,3/4^2[8:1],4/5,2/3^1[8:1],3/4,
{8}2^4qq1[2:1]/6^4pp7[2:1],,,,,,,2/6,2b/6b,,,,1-5[8:1]/8-4[8:1],,1/8,,3/4x^7[8:1],3,3/4,3,3/4^7[8:1],3,3/4,3,4bV68[4:1],,
{4}8V24[4:1],4<8[4:1],8,4,
{8}7-4[8:1],8-3[8:1],7,8,7,8,1/2,3,4/5,6,7h[8:1]/8h[8:1],,2^5[8:1]/6^1[8:1],,2/6,,1h[4:3]/6>2[8:1],6,,,6>2[8:1],6,,,1/2,3/4,3,
{16}5,5,4,,
{8}6,5qq5[4:1],,
{4}5pp5[4:1],,4pp4[8:3]*qq4[8:3],,,3x/5x,Cf,
{8}6/5^2[8:1],6,5/6,6,6/5^2[8:1],6,5/6,6,5bV31[4:1],,
{4}1V75[4:1],5>1[4:1],1,5,
{8}2b-5[8:1],1b-6[8:1],2b,1b,2,1,7/8,6,4/5,3,1h[8:1]/2h[8:1],,3^8[8:1]/7^4[8:1],,3/7,,3<7[8:1]/8h[4:3],3,,,3<7[8:1],3,,,7/8,7,1,
{16}8,8,2,,
{8}3,1/2-4[8:1],,
{4}2/1-7[8:1],1/2-4[8:1],2/1w5[2:1],1,,,C,5/6<4[1:1],,5,5,5-1[2:1],,8,8,1/8<2[1:1],,1,1,1-5[2:1],,6,6,5/6<4[1:1],,5,5,5-8[4:1],,7,7/8bh[8:15],1-6[8:1],1,1-6[8:1],1,6h[8:5],,,
{32}1x,2x,3x,4x,5x,6x,7x,8x,1xb,,,,,,,,
{8}8/7<3[8:1],8,7/8,8,8/7<3[8:1],8,7/8,8,8bV64[4:1],,
{4}4V28[4:1],8,4,
{8}7-4[8:1],8-3[8:1],7,8,7,8,1/2,3,4/5,6,2-5[8:1]/6-1[8:1],,2^7[8:1]/6^3[8:1],,,,3-8[8:1]/4-7[8:1],2/5,,,7x-4[8:1]/8x-3[8:1],1/6,,,1/2,3/4,3,
{16}5,5,4,,
{8}6,5qq5[4:1],,
{4}5pp5[4:1],,4pp4[4:1]*qq4[4:1],4>6[8:3],,,Cf,
{8}8/7<3[8:1],8,7/8,8,8/7<3[8:1],8,7/8,8,8b,8b,8bV64[4:1],,
{4}4V28[4:1],8,4,
{8}8/6>2>6[8:3]b,8,6/8,8,8,8,
{16}7b/8b,,,3b/4b,,,
{8}1b/2b,2b-7[8:1]b/6b-3[8:1]b,,2b/6b,,1/2>6>2[2:1]b,1,1/2,1,1,1,1,1,2V46[4:1],,
{4}6V82[4:1],2>6[4:1],6,1-3[8:1]*-4[8:1],1-6[8:1]*-7[8:1],1-5[8:1],1w5[1:1],1,,,,,,,,7^4[4:1]/8bh[8:59],,,4,4^7[4:1],,,7,7,7-3[4:1],,,3,3-7[4:1],,,7,1,3,7,7,4,1,7,7>6[2:1],,,,1h[8:3],,1-4[8:1]/8-5[8:1],1/8,
E
Re:MASTER
最終更新:2026年08月17日 01:32