BASIC
ADVANCED
EXPERT
MASTER
(180){1},
{4}4-1[2:1],,,5,5-8[2:1],,,,4-1[2:1],,,5,5-8[2:1],,,,4>1[2:1],,,5,5<8[2:1],,,,4>1[2:1],,,5,5<8[2:1],,,,7x/E4,2x/E6/B6,8x/B4/B5/C,
{8}1bx/2bx,1x/2x>5[8:1],,6h[4:1],,7,7>2[8:1],,6v1[8:1],,4,4,,38,38,,7,7<4[8:1],,3h[4:1],,2,2<7[8:1],,3v8[8:1],,5,5,,16,16,,6,6<1[8:1],,2h[4:1],,3,3<6[8:1],,2v5[8:1],,8,8,,47,47,,3,3>8[8:1],,7h[4:1],,6,6p1[8:1],,7-4[8:1],,8,8,,26,2b/6b,,
{8}7h[4:1],,6,5h[4:1],,6,7,,48,8-5[8:1]/4-2<1[8:1],,,,2,2h[8:13],,5-3[8:1],,,,1-3[8:1],,,,4,4q6[8:3],,,,,,,7s3[8:3],,3,3s7[8:3],,1,1,,2,2>6[4:1],,6,,7,7,,8qq8[4:1],,2pp2[4:1],,,,8,8,12,2-6[8:1]/1-5[8:1],,1b/2b,,,47,,8<4[8:3],,4,4>8[8:3],,8,8pp4[8:3],,3h[8:3],,,,,35,3/5<8[8:1],,4,,5p1[8:1],,6,,5,,68,8q5[8:3]/6p7[8:3],,,,,,,7h[4:1],,6,5h[4:1],,6,7,,48,8-4[8:1]/4-2[8:1],,,,15,{4}1/5qq5[4:1],1h[2:1]/5pp5[4:1],,,34,{8}5/6h[4:1],,7,7h[4:1],,8,8-4b[8:1]*-3b[8:1],,
{2}8b,{8}2h[4:1],,1,8h[4:1],,1,3,,48,8-5[8:1]/4-2<1[8:1],,,,6,6qq5[4:1],,1,,2qq1[4:1],,5,,6,,7,7<6-3[8:3]*v2>3[8:3],,,,,,,2-7-3-5[2:1],,6,6,,8,8<5[8:1],,3,3>8[8:1],,6>3[8:1],,2,2,,1/2h[4:1],,1h[8:1],3h[8:1],8h[8:1],2h[8:1],7h[8:1],1h[8:1],6h[8:1],8h[8:1],5h[8:1],1b,,37,37,,6h[4:1],,7,1h[4:1],,8,6,,24,,57,57,,3,3v5[8:1]*v1[8:1],,,,6v8[8:1]*v4[8:1],,,,37,,6,6p1[4:1],,2h[8:3],,,8,,57,,35,35,,23,3<6>3[8:3]/2q7p2[8:3],,,,,,,1,1q5[4:1],,5q1[4:1],,1,,5,,7-2[8:1]/3-6[8:1],,,,15,3b/7b,{4},,
5h[4:1]/E8,,4h[4:1]/E7,,3h[4:1]/E6,,2h[4:1]/E5,,1/B5,2/B6,3/B7,4/B8,5/B1,6/B2,7/B3,8/B4,7h[4:1]/E5,,6h[4:1]/E4,,5h[4:1]/E3,,4h[4:1]/E2,,A3/A7/E4/E8,E2/E6/B2/B6,A4/A7/B4/B7,A2/A5/B2/B5,A3/A7/E4/E8/B3/B7,A1/A5/E2/E6/B2/B6,A4/A8/E1/E5/B4/B8,E2/E3/E6/E7/B2/B6/Ch[4:1],,,{8},17,7v4[8:1]/1v4[8:1],8,
1b/7b,,3,3<6[8:1],,37,8pp5[8:3],,5,5,4,4,34,4-7[8:1]/3-8[8:1],,34,,1,1V35-7[4:1],,7<1[4:1],,1,,{16}7h[16:3],,,1,{8}1-5[8:1],7-3[8:1],1,7,,,3>8[8:1],,37,6>3[8:1],,68,1qq4[8:3],,4,4,5,5,65,6>3[8:1]/5-1[8:1],,56,,2,1,8,7h[16:3],{16},5,{8}5,48,,2-5[8:1],1-6[8:1],2,1,,5-1[8:1]/4-8[8:1],,D5f/A4/A5,,7,7>2[8:1],,37,4qq1[8:3],,1,1,8,8,78,8-4[8:1]/7-3[8:1],,78,,6,6V82-4[4:1],,4>6[4:1],,6,,{16}4h[16:3],,{16},3,{8}3-7[8:1],5-1[8:1],3,5,,,6q2[8:1],,46,3p7[8:1],,35,6qq3[8:3],,8,8,1,1,48,4/8>6[4:1],,7bh[8:3]/8b,,,8-4[8:1],1,2-6[8:1],,5,5<8[8:1],,1,1w5[8:1],,1b,,28,2-4v5-7-5v4-2b[8:11]/8h[4:7],
{4},,,,,,{8},1,8<5[8:1]/1>4[8:1],,{32}1b/8b,E2/E8,E3/E7,E4/E6,{8}E5f,,{1},,,,,,
E
Re:MASTER
最終更新:2026年07月04日 23:23