アットウィキロゴ

キミは“見ていたね”?

アーティスト 曲:篠崎あやと、橘亮祐/歌:結城 莉玖(CV:朝日奈 丸佳)、東雲 つむぎ(CV:和泉 風花)

BPM BASIC ADVANCED EXPERT MASTER Re:MASTER
168 3 6 10 13 -

EXPERT MASTER Re:MASTER
譜面制作者 はっぴー サファ太 -

BASIC


ADVANCED


EXPERT


MASTER

(168){1},
{8}1b,,3/5,,7,7,5,6,
{8}5h[4:1]/7,,8,7,6,4,5<3[8:5],6,
{1}7h[1:1],
{8}3h[4:1],,4,4,1,8,1/7,,
{8}2x/6x,,3/5,,2,2,4,3,
{8}2/4,,1,1<6[4:1],,5h[4:1],,,
{8},6x,5x/7x,,1/2,1/2,1/2,3h[4:3]/8,
{8},,,,,4,4,,
{8}5/3<5[4:1],,,6,6h[4:1],,5,,
{8}6/5p8[16:5],,,7,7h[4:1],,8,,
{8}1/6-8-5-1-4[1:1]b,,,3,3,,2-5[4:1],,
{8},,,,,5/7,5/7,,
{8}6>4[4:1],,,3,3h[4:1],,4,,
{8}3/4q1[16:5],,,2,2h[4:1],,3,,
{8}4/3-1-4-8-5[1:1]b,,,5,5,,6,,
{8}7bx,,7bxh[8:3],,,5,4/8,,
{8}2h[4:1],,4,5,4/6h[4:1],,5,,
{8}4/7h[4:1],,5,4,3h[4:1]/5,,4h[4:1],,
{4}2-7V13[4:3],4-8-3[2:1]b,,,
{8},,2/4,2/4,,1,2,3,
{8}3h[4:1]/4h[4:1],,,2,2,1,8,7,
{8}5h[8:1]/6h[8:1],,5h[8:1]/6h[8:1],,3/4,2,3/1-4[8:1],,
{2}B8h[8:7],B4h[8:3],
{8}C1f/B2/A2/B6/A6,,,,,1/8,1/8,,
{24}E7/2xh[1:1],E6,E5,,,,,,,,,,B3/E3,,,,,,,,,,,,
{4}1-5[4:1],2,4-8[4:1],5,
{8}7,7h[8:7],,,B5/B6,,,,
{4}8-4b[4:1],7,5,3,
{2}1bxh[4:1]/2bxh[4:1],7bxh[4:1]/8bxh[4:1],
{2}1bxh[4:1]/3bxh[4:1],6bxh[4:1]/8bxh[4:1],
{8}1x/5x,,3,2/4,,6,5/7-3[8:1],,
{8}1b,1b,,2b/8b,,5/6,5-1b[8:1]/6-1b[8:1],,
{4}5bx/6bx,3-8[8:1]/4-8[8:1],3x/4x,1/7-4<5-1[8:5],
{8}2,2,,3,,4,4h[4:1],,
{4}2x<7[8:1],5h[4:1],6x>3[8:1],8x,
{8}1,1,,B3/E3/B4/E4f/E5,,6/7,6-1[8:1]/7-4[8:1],,
{4},2-5[8:1]/3-8[8:1],,6/7,
{8}4,4h[4:1],,B3/B4/E4f,,1/2,1/2-5[8:1],,
{8}8,7,6,5,4/6,3/5,2/4-8[8:1],,
{8}1,1<6[8:1]*>4[8:1],,1b,,,7-4[8:1]/8-3[8:1],,
{4}7b/8b,1-6[8:1]/2-5[8:1],1/2,8/7v4<5-1[8:5],
{8}2,2,,3,,4,4h[4:1],,
{4}2<7[8:1],5>2[8:1],6,7/8,
{8}5/6,6/5-8[8:1],,4/5,,2,2<4[2:1],,
{4}7h[4:3],,,4,
{16}2/6,,3,4,,6,5,,,,3/8,,2,1,2,1h[16:3],
{8},3bV15[4:1],,5-7[8:1],5,,8,,
{8}1b/7b,2b/6b,3b/5b,1bh[8:3]/7bh[4:1],,,,,
{8}3h[8:3]/4,,,E3,E4,,E8/D8,,
{8}5/6h[8:3],,,E7,E6,,E2/D2,,
{2}4/3p8[2:1],7p4[2:1],
{8}1,,2,2,4,3,4/2-6[8:1],,
{8}8bxh[8:3],,,E7,E6,,B3/E3/B4/E4,,
{16}1/2,,,,2/8,,2/8h[8:9],,,,,E2f,,B4f/A4,,B7/E7/A7f,
{8},,,,2,2,2/1-5b[4:1],,
{8}4-8[4:1],,,,7,7,8/6<4[8:3],,
{16}E5f,,,,,,,,,,1h[16:3],,,7h[16:3],,,
{8}8-4-2[4:1],,5,5,,4,2/4,,
{8}E3,E4,E5,E6,E7h[2:1],,,,
{8}8>3[4:1],,,7<4[4:1],,,3q5<2[1:1]b,,
{1}C1f,
{8}8h[2:1],,,,2h[4:1],,1,1,
{8},3/4,2/5,,4/7,3/6,2/5,1b/4b,
{16},,2,,2h[16:3],,,4,3,,5/6,,4x/7x,,,,
{24}E8,E7,E6h[12:17],,,,,,,,,,B7/B8,,,,,,,,,,,,
{4}C1h[2:1],,,2/8,
{8}7,7h[4:1],,6,5-1[4:1],,6,,
{8}5,,1h[4:1]/4,,3,3,2/4<8[4:1],,
{4},5>1[4:1],7,5<1[4:1],
{4}2,4>8[4:1],6,4-6-8-2[4:3],
{1}B3h[2:1],
{8}4b/5b,4b-8[8:1]/5b-1[8:1],,,,,2-4[8:1]*-5b[8:1],,
{4},7-4[8:1]*-5b[8:1],,1-6-8[8:3]b/2-5-3[8:3],
{8},,,,,3/8,3/8-3[8:1],,
{4}2x-5[8:1],4x-7[8:1],6x-2[8:1],8x,
{8}1/3,1-5[8:1]/3-5[8:1],,1b/3b,,,2/7<3[4:1],,
{4}3>7b[4:1],7<3[4:1],3>7b[4:1],7,
{8}5,5h[4:1],,B3f/E3/E4,,1/2,1/2-6[8:1],,
{8}6,7,8-4[8:1],,4,3,2h[4:1],,
{16}1b,,3b/8b,,,,1b/6b,,,,2/5,,3,4,3,4,
{4}2-5[8:1],1-6[8:1],4-8[8:1],7-4<5-1[8:5],
{8}1,1,,3,,5,5h[4:1],,
{4}1<6[4:1],6-2[4:1],2>5[4:1],1,
{8}8,7-5[8:1]/8-4[8:1],,7b/8b,,1/2,1/2>6[4:1],,
{4}6<2b[4:1]*V82b[4:1],,,1/6,
{16}7h[8:1]/8h[8:1],,,1h[8:1]/2h[8:1],,,B3/E3/E4/B6f/E6/E7,,,,,,2,8,2,8h[16:3],
{8},4b>8[16:3],,6,6w2[8:1],,6x,,
{8}4b/8b,5b/7b,3b/4b,1bh[4:1]/6bh[8:3],,,,,
{8}7/8x-3[8:1],,7,6,5x-1[8:1],,3,,
{8}2/1x-6[8:1],,2,3,4x-8[8:1],,6,,
{4}7<1b[2:1],8,1<6b[4:1],6w2b[4:1],
{8},,,,1/7,2,3,4bv1[4:1],
{8}5x,6x,7x,8xh[4:1],,2,3<5-1[8:3],7,
{8}7,,8,8V63[4:1],,1bx,1bxh[2:1],,
{8},E4,E5fh[16:23],,E8,E1,E2,E3fh[16:17]/D3fh[16:21],
{1},
{16},,,4bxw8b[4:1],,,,,,,,,,,,,
{1},,
E

Re:MASTER


名前:
コメント:

タグ:

+ タグ編集
  • タグ:
最終更新:2026年04月05日 21:33