EASY
BASIC
ADVANCED
EXPERT
MASTER
(184){8}45,45,45,45,{4}45,2b/7b,
3/4-1[8:1],,5-8[8:1]/6,,3/4-1[8:1],,56,48,
26,{8}4,4>8[4:1],,8<4[4:1],,4,,,,1,8,8,1,1,
{4}2-6[8:1]/6,8,3/7-3[8:1],1,3^6[8:1]/7,1,2/6^3[8:1],8,
1>7[8:3]/8,8,8,{8}18,18,,2b/7b,,2b/7b,,2b/7b,,18,
18,,45,,57,8,1,2,35,,46,,24,1,8,7,
46,,18,,57,8,1,2,35,,46,,24,1,{4}8,
35,46,8,8p1[4:1],,,46,35,
4qq4[8:3]*pp4[8:3],,,{8},45,,46,,35,,45,{4}45,
24,35,1,1,,1-4[8:1]/8-5[8:1],,2b/7b,
2b/7b,4-1[8:1]/5-8[8:1],,{8},45,,35,,46,,45,{4}45,
6h[4:1],5,4h[4:1],5v2[4:1]*v8[4:1],,,26,1^4[8:1]/5^8[8:1],
,3^8[8:1]/7^4[8:1],,{8},45,,46,,35,,45,{4}45,
6-3[8:1]/7-2[8:1],,1,1,,6-2[8:1]/7-3[8:1],,2,
2,4-2[8:1]/5-7[8:1],,{8},45,,35,,46,,45,45,,
5^2[8:1]/7,,,7,78,,16,,2/4^7[8:1],,,2,12,,38,,
4/6^1[8:1],,,3,34,,25,,3^8[8:1]/5,,,6,56,,47,,
2/4^7[8:1],,,2,12,,38,,5^2[8:1]/7,,,7,78,,16,,
3^8[8:1]/5,,,6,56,,47,,4/6^1[8:1],,,3,{4}34,27,
6^3[4:1],3^8[4:1],8^5[4:1],5^2[4:1],2^7[4:1],7^4[4:1],4^1[4:1],1^6[4:1],
6^3[4:1],3^8[4:1],8^5[4:1],5^2[4:1],2^7[4:1],7,4,18,
{2}5-8[8:1]/6-4[8:1],3-5[8:1]/4-1[8:1],4-7[8:1]/5-2[8:1],3-8[8:1]/6-1[8:1],
2s6[8:5]/7z3[8:5],,{8}18,18,18,18,{4}18,2b/7b,
3/4-6[8:1],2,3/4-7[8:1],2,3/4-8[8:1],1,34,15,
37,{8}5,5<1[4:1],,1q3[8:3],,3,,,,1,8,8,2,2,
{4}1/2-6[8:1],8,7-3[8:1]/8,1,3/4-8[8:1],1,5-1[8:1]/6,8,
4h[4:1]/5h[4:1],{8},45,45,,36,3b/6b,3b/6b,3b/6b,3b/6b,36,36,4,4,4,
{4}5-3[8:1]/6,7,5-2[8:1]/6,7,5-1[8:1]/6,8,56,48,
26,{8}4,4>8[4:1],,8p6[8:3],,6,,,,8,1,1,7,7,
{2}7-3[8:1]/8-2[8:1],1-7[8:1]/2-6[8:1],5-1[8:1]/6-8[8:1],3-1[8:1]/4-8[8:1],
{8}1>7[8:3]/8,,8,,8,,18,18,,2b/7b,2b/7b,2b/7b,2b/7b,2b/7b,2b/7b,27,
27,,45,,24,1,8,7,46,,35,,57,8,1,2,
35,,18,,24,1,8,7,46,,35,,57,8,1,,
{4}2^5[8:1]/6h[1:6],2,2^5[8:1],2,2^5[8:1],2,2^5[8:1],2,
{1}2qq7[2:1],7q2[2:1],
{4}2^5[8:1],2,2^5[8:1],2,2^5[8:1],2,2^5[8:1],2,
2,45,36,1pp4[2:1]/8qq5[2:1],,,,2b/7b,
{2}4h[8:3]/6^8[8:1],5h[8:3]/6^8[8:1],4h[8:3]/6^8[8:1],5h[8:3]/6^8[8:1],
3^1[8:1]/5h[8:3],3^1[8:1]/4h[8:3],3^1[8:1]/5h[8:3],3^1[8:1]/4h[8:3],
{4}4/6^8[8:1],4,5/6^8[8:1],5,3^1[8:1]/4,4,3^1[8:1]/5,5,
{2}7^4[8:1]/8^3[8:1],1^6[8:1]/2^5[8:1],4-8[8:1]/5-1[8:1],2b/7b,
4/5-1[8:1]*-3[8:1],5-2[8:1]*-8[8:1]/6,4/5-1[8:1]*-7[8:1],{8}56,,48,,
26,,4,4>8[4:1],,8p6[8:3],,6,,,,8,1,1,7,7,
5-1[8:1]/6,,8,,3/4-8[8:1],,1,,5/6-1[8:1],,2,,3-8[8:1]/4,,7,,
4h[4:1]/5h[4:1],,,45,45,,27,2b/7b,2b/7b,2b/7b,2b/7b,2/7,27,3,3,3,
{4}4-6[8:1]*-8[8:1]/5,,3/4-1[8:1]*-7[8:1],,4-2[8:1]*-8[8:1]/5,,34,15,
37,{8}1,8,7pp2[2:1],,,,,,,1,8,8,2,2,
{2}3-5[8:1]/4-8[8:1],5-1[8:1]/6-4[8:1],2-4[8:1]/3-8[8:1],6-1[8:1]/7-5[8:1],
{8}1/8<2[8:3],,1,,1,,18,18,,2b/7b,2b/7b,2b/7b,2b/7b,2b/7b,2b/7b,27,
1-5[8:1]/7-2[8:1],,,,56,5,7,7,3,3b/8b,3b/8b,3b/8b,3b/8b,3b/8b,3b/8b,38,
1v4[8:1]/6v4[8:1],,,,34,4,2,2,6,1b/6b,1b/6b,1b/6b,1b/6b,1b/6b,1b/6b,16,
2h[2:1]/8p3[8:1],,,,7-2[8:1],,,,36,3b/6b,3b/6b,3b/6b,3b/6b,3b/6b,3b/6b,36,
5^2[8:1]/7h[4:1],,,,24,1,8,7,46,,35,,57,8,1,2,
3h[4:1],,4h[16:5],,{16},5<4[16:19],,,,,,,{1},,E
Re:MASTER
最終更新:2026年10月13日 00:43