BASIC
ADVANCED
EXPERT
(154)
{8}2,2,5,5,1,1,4,4,2,2,8,8,1-5[8:1],1,,,7,7,4,4,8,8,5,5,7,7,1,1,8-4[8:1],8,,,2,2,5,5,1,1,4,4,2,2,8,8,1-5[8:1],1,,,7,7,4,4,8,8,5,5,7,7,1,1,8,,2b/7b,,
{16}4/6h[8:3],,,4,,,
{8}4,,3,3/4,,
{16}5/3h[8:3],,,5,,,
{8}5,,1,1,1h[4:1]/8h[4:1],,,7h[8:1],2h[8:1],8h[8:1],1h[8:1],7h[8:1],2h[8:1],8,8,,3/5,,6,4/6,,
{16}5/3h[8:3],,,5,,,
{8}5,,6,5/6,,
{16}4/6h[8:3],,,4,,,
{8}4,,3,3/4,,
{4}3/6h[4:1],8h[4:1],1>8[4:3],,,,,8x,
{16}4/2h[8:3],,,4,,,
{8}4,,6,4/6,,
{16}5/7h[8:3],,,5,,,
{8}5,,8,8,1/8,,7,7h[4:1],,5h[4:1],,4h[4:1],,2,2,,1/8,,6,4/6,,
{16}5/7h[8:3],,,5,,,
{8}5,,3,3/5,,
{16}4/2h[8:3],,,4,,,
{8}4,,6,4/6,,5/3h[4:1],,
{16}1h[16:5],,,,,8<1[16:11],,,{1},
{4}1x,8/2-5[8:1],,
{2}1/7-4[8:1],8/2-5[8:1],4/7,
{4}E5,E4/E6,E3/E7,E2/E8,Ch[2:1],,B2/B7,,1/8<5[4:1],,4,3/5,8/1>4[4:1],,5,4/6,
{8}8,8,1,1,7,7,2,2,1x/8x,1x/8x,,2x/7x,2x/7x,,4/5,,
{16}2h[16:3],,,3h[16:3],,,4,,7h[16:3],,,6h[16:3],,,5,,2h[16:3],,,3h[16:3],,,
{8}4,2/5,,
{4}4/7,7/8,5/6,3/4,1<6[4:1]/2>5[4:1],,,3b/8b,4/5,
{16}7h[16:3],,,6h[16:3],,,5,,2h[16:3],,,3h[16:3],,,4,,7h[16:3],,,6h[16:3],,,5,,4/7,2b,,,
{4}1/6,8z4[2:1],,,1h[4:1],8b,,3/6,4/5,
{16}7h[16:3],,,6h[16:3],,,5,,2h[16:3],,,3h[16:3],,,4,,7h[16:3],,,6h[16:3],,,
{8}5,4/7,,
{4}2/5,1/2,3/4,5/6,7<4[4:1]/8>3[4:1],,,1b/6b,4/5,
{16}2h[16:3],,,3h[16:3],,,
{8}4,,2/5,,4/6<3[8:3],,,,,,,1/2,1-4[16:1]/2-4[16:1],,,,
{4}7-5[16:1]/8-5[16:1],,1-4[8:1]/8-5[8:1],,1/8,4/5,
{8}2h[8:5]/7h[8:5],,,,,,,
{4}4/5,6-3[8:1],,2-6[8:1],,8h[2:1],6,1h[2:1],3,
{8}8,8,2,2,5<8[4:1],,,,
{4}1h[2:1],,4,5/7,
{16}7/8h[16:3],,,6h[16:3],,,
{8}5,4/7,,
{4}3/5,2-4-6[4:1],,
{8}8-4[8:1],,,2,
{16}2h[16:3],,,3h[16:3],,,
{8}4,4-1[8:1],,,,
{4}8h[2:9],,,,E6,E4,B6,E5,E6,E4,B6,E5,E6,E4,B6,E5,C,,1h[8:33],,E4,E6,B3,E5,E4,E6,B3,E5,E4,E6,B3,E5,C,,8-5[4:1],,4,3/4,5,5/6,4,3/4,5,5/6,4,2/4,5,5/7,
{8}4,4,5,5,3/5,,
{4}5/6,7/8,1/2,3/4,6/5>6[2:1],,,,1/8,
{16}7h[16:3],,,6h[16:3],,,5,,3h[16:3],,,2h[16:3],,,1,,6h[16:3],,,7h[16:3],,,
{8}8,2/7,,
{4}4/5,1/2,3/4,5/6,7q4[4:1]/8p3[4:1],,,1b/6b,4/5,
{16}2h[16:3],,,3h[16:3],,,4,,6h[16:3],,,7h[16:3],,,8,,3h[16:3],,,2h[16:3],,,
{8}1,2/7,,
{4}3/8,1s5[2:1],,,8h[4:1],1b,,3/6,4/5,
{16}2h[16:3],,,3h[16:3],,,4,,6h[16:3],,,7h[16:3],,,8,,3h[16:3],,,2h[16:3],,,
{8}1,2/8,,
{4}4/7,7/8,5/6,3/4,1<6[4:1]/2p5[4:1],,,3b/8b,4/5,
{16}7h[16:3],,,6h[16:3],,,
{8}5,,4/7,,5/3>6[8:3],,,,,,,7/8,7-5[8:1]/8-5[8:1],,,,
{4}1-4[8:1]/2-4[8:1],,1-4[8:1]/8-5[8:1],,1/8,4/5,
{16}2/7,,7h[16:3],,,6h[16:3],,,5,,5h[16:3],,,6h[16:3],,,7,,2h[16:3],,,3h[16:3],,,4,,4h[16:3],,,3h[16:3],,,
{8}2,2-6[8:1],,,,4b/8b,,
E
MASTER
(154)
{1},
{16}5,4,6h[8:1],,4,5,3h[8:1],,5,4,6h[8:1],,4,5,3h[8:1],,6,5,7h[8:1],,3,4,2h[8:1],,6,5,7h[8:1],,1,,,,
{16}4,5,3h[8:1],,5,4,6h[8:1],,4,5,3h[8:1],,5,4,6h[8:1],,3,4,2h[8:1],,6,5,7h[8:1],,3,4,2h[8:1],,8,,,,
{16}6,5,7h[8:1],,3,4,2h[8:1],,6,5,7h[8:1],,3,4,2h[8:1],,6,5,8h[8:1],,3,4,1h[8:1],,6,5,8h[8:1],,1,,,,
{16}3,4,2h[8:1],,6,5,7h[8:1],,3,4,2h[8:1],,6,5,7h[8:1],,1,8,1,8,1,8,1,8,1,,{8}1,2b/7b,,
{16}46,,,35,,,{8}4/2h[4:1],,8,37,,{16}35,,,46,,,{8}5/7h[4:1],,1,26,1-5[8:1],
{8}8-4[8:1],1x,8x,1-5[8:1],8-4[8:1],1x,8x,1x,8,1h[4:1],,4-7[8:1],,3,3,,
{16}35,,,46,,,{8}5/7h[4:1],,1,26,,{16}46,,,35,,,{8}4/2h[4:1],,8,37,,
{16}35,,,46,,,{8}5/7h[4:1],,1,2/6p4[2:1],,,,,,,,36,,
{16}8h[4:1],,,,5h[4:1],,,,6,5,6-8[8:1],5,,,{8}1,1,1,4,4h[8:1],{16}3,4,3-1[8:1],4,,,8,,
{8}8,8,5,5h[8:1],{16}6,5,6-8[8:1],5,,,{8}1,1,2,3,4,5,6,7,8,
{16}1h[4:1],,,,4h[4:1],,,,3,4,3-1[8:1],4,,,{8}8,8,8,5,5h[8:1],{16}6,5,6-8[8:1],5,,,1,,
{8}1,1,4,4h[8:1],{16}3,4,3-1[8:1],4,,,8,,8h[16:3],,,6h[16:3],,,5,,3,4,3,,26,,,,
{16}5-8[8:1],,,3,,,4,,4-1[8:1],,,6,,,5,,5-8[8:1],,,3,,,{8}4,48,,35,,
{8}2^7[8:1],2,6V48[8:3],6,{16}3,,,2,,,1,,1h[16:3],,,3h[16:3],,,{8}4,25,,4/6-3[8:1],3,
{8}2,,5/3-6[8:1],6,7,,4/6-3[8:1],3,1,,5/3-6[8:1],6,8,,46,,
{8}B2/E2,B7/E8,B3/E4,B6/E6,B2/E2,B7/E8,B3/E4,B6/E6,1,1,8,8,1-4[8:1]/7-4[8:1],,1x/7x,,
{16}3x/6xV84[4:1],,,4,,,2,,2V48[4:1],,,4,,,6,,6V48[4:1],,,2,,,{8}1,1-6[8:1],8-4[8:1],1x,8x,
{8}2,2h[8:1],4,4h[8:1],5,5h[8:1],7>4[8:3],7,Cf,,{4}E5,1-3[8:1]*-6[8:1],1x,
{16}6x/3xV15[4:1],,,5,,,7,,7V51[4:1],,,5,,,3,,3V51[4:1],,,7,,,{8}8,8-3[8:1],1-5[8:1],8x,1x,
{4}8<2[8:3],2,1,{8}8z4[4:1],,,,,8,8-3[8:1]*-6[8:1],,8x,,
{16}6x/3xV15[4:1],,,7,,,8,,8^5[8:1],,,5,,,4,,4^1[8:1],,,7,,,{8}8,8-3[8:1],1-5[8:1],8x,1x,
{8}7,7h[8:1],5,5h[8:1],4,4h[8:1],2<5[8:3],2,Cf,,{4}E5,8-3[8:1]*-6[8:1],8x,
{16}3x/6x^3[8:1],,,2,,,{4}1h[4:1],3pp7[2:1],2,{8}1,1,8h[4:1],,,78,7-4[8:1]/8-3[8:1],
{8},7x/8x,,1-6[8:1]/2-5[8:1],,1x/2x,,1^4[8:1]/8^5[8:1],,1x/8x,,1b/8b,,4z8[16:9]/5s1[16:9],,,
{4},,,18,7h[4:1],5h[4:1],{8}4,4,2,2,
{8}6-3[8:1],6,2-7[8:1],2,5-8[8:1],5,1-4[8:1],1,5-7[8:1],5,4-2[8:1],4,5-8[8:1],5,1>6[4:1],1,
{2}Cf,8h[2:1],{16}5-1[8:1],,,6,,,{8}7,7-3[8:1],,1,,
{16}1h[16:3],,,3h[16:3],,,4,,5h[16:3],,,7h[16:3],,,8,,1h[16:3],,,3h[16:3],,,{8}4,4-1[8:1]/5-8[8:1],,,,
{1}3h[2:1]/6h[1:4],{8}E7,E6,E8,E5,E3,E4,C,E1,
{8}E7,E6,E8,E5,E3,E4,C,E1,E7,E6,E8,E5,E3,E4,C,,
{4}1,2,3h[2:7],,{8}E3,E4,E2,E5,E7,E6,C,E1,
{8}E3,E4,E2,E5,E7,E6,C,E1,E3,E4,E2,E5,E7,E6,C,,
{4}8,,,45,{8}46,6,46,6,56,6,56,6,
{8}46,6,46,6,56,6,46,6,35,3,35,3,34,3,34,3,
{8}35,3,35,3,34,3,35,3,46,6,46,6,56,6,6/5>1[4:1],6,
{8},,,15,15,,45,,{16}6x/4xV62[4:1],,,5,,,8,,8V26[4:1],,,5,,,4,,
{16}4V62[4:1],,,7,,,{8}8,8-3[8:1],1-5[8:1],8x,1x,7,7h[8:1],5,5h[8:1],4,4h[8:1],2<5[8:3],2,
{4}Cf,E5,8-3[8:1]*-5[8:1],8x,{16}3x/5xV37[4:1],,,4,,,1,,1V73[4:1],,,4,,,5,,
{16}5V37[4:1],,,2,,,{8}1,1-6[8:1],8-4[8:1],1x,8x,1>7[8:3],,{4}7,8,1s5[4:1],
{8},,,1,1-3[8:1]*-5[8:1],,1x,,{16}3x/5xV37[4:1],,,2,,,1,,1^4[8:1],,,7,,,5,,
{16}4/5^8[8:1],,,3,,,{8}1,1-6[8:1],8-4[8:1],1x,8x,2,2h[8:1],4,4h[8:1],5,5h[8:1],7>4[8:3],7,
{4}Cf,E5,1-3[8:1]*-6[8:1],1x,{16}6x/3x^6[8:1],,,7,,,{8}8h[4:1],,6qq2[2:1],,7,
{8},8,8,1h[4:1],,,12,1q6[8:1]/2^5[8:1],,{4}1x/2x,7^4[8:1]/8p3[8:1],7x/8x,{8}1^4[8:1]/8^5[8:1],
{8},1x/8x,,1b-5[8:1]/8b-4[8:1],,1b/8b,,2b/7b,{16}7h[16:3],,,5h[16:3],,,4,,2h[16:3],,,4h[16:3],,,5,,
{16}6h[16:3],,,7h[16:3],,,8,,1h[16:3],,,2h[16:3],,,3,,36,,,4,5-8[8:1],,3,,3,,
E
Re:MASTER
最終更新:2026年09月24日 16:23