BASIC
ADVANCED
EXPERT
MASTER
(168)
{4}57,46,35,24,5/1V35[4:1],,B7/B8,,
{2}3/5V71[4:1],B3/E4,6/2V46[4:1],{4}B8/E1,C,
{4}24,35,46,57,4/8V64[4:1],,B1/B2,,
{2}6/4V28[4:1],B5/E6,3/7V53[4:1],{4}B5/B6,C,
{4}12,34,56,78,1/6V48[2:1],1,2,3,
{4}7/4V62[2:1],8,7,6,3/5V38[2:1],2,1,2,
{4}78,56,34,12,8/3V51[2:1],8,7,6,
{4}2/5V38[2:1],1,2,3,57,24,{8}18,2b/7b,,,
{16}3,4,3,4,3,,,,{8}6,1,7,4,{16}6,5,6,5,6,,,,{8}3,8,2,5,
{16}3,4,3,4,3,,,,{8}6,1,7,4,{16}6,5,6,5,,,3,4,3<6[8:1],4,,,,,,,
{16}7,5,6,5h[16:3],,,{8}6,3,8,2,5,{16}3,4,3,4h[16:3],,,{8}3,6,1,7,4,
{16}6,5,6,5h[16:3],,,{8}6,3,8,2,5,{16}3,4,3,4,2,5,2,,{8}18,27,3b/6b,,
{4}6x/4x-8[8:1],6,6/8v5[8:1],6,6/5-2[8:1],6,6/2-7[8:1],6,
{4}6/7v4[8:1],6,6/4V28[16:3],6^3q8[2:1],,,,17,
{4}3/5-1[8:1],3,3/1v4[8:1],3,3/4^7[8:1],3,3/7v1[8:1],3,
{4}3/1p4[8:1],3,3/4-8[8:1],3>5[4:1],,,{8}36,3b/6b,,,
{8}12,3h[8:1],4,25,,6h[8:1],5,7,78,6,5,4/7V51[16:3],,2,2,2^5[8:1],
{8},,,7,46,3,5/2-5[8:1],,{4}4bx-7[8:1],6bx-1[8:1],8bx-3[8:1],2b,
{8}35,2h[8:1],1,38,,7,56,4,3<6[4:1],,6p8[4:1],7,,7,7,,
{8}17,2,34,5,46,7,28,,{16}1,1,1,1,1,1,8/2-6[8:1],,{2},
{4}7-5[8:1]/8-2[8:1],7-3[8:1]/8-4[8:1],7^4[8:1]/8^3[8:1],{8}7b/8b,,,25,25,,56,7,34,1,
{4}8/2-4[8:1],2/6-8[8:1],6/1-5[8:1],1/7-4[8:1],7/3-1[8:1],3/8z4[8:1]b*-5[8:1]b,8b,3b/7b,
{4}1-7[8:1]/2-4[8:1],1-5[8:1]/2-6[8:1],1^6[8:1]/2^5[8:1],{8}1b/2b,,,47,47,,24,3,57,6,
{8}34,2,18,7,46,2,17,17,{16}2,3,4,7,6,5,1,2,34,,{8}34,16,,
{4}7-3[8:1]/8-4[8:1],7^4[8:1]/8^3[8:1],7-3[8:1]/8-4[8:1],{8}7b/8b,,,25,25,,78,6,12,3,
{4}4/6-4[8:1],6/3-7[8:1],3/8-4[8:1],8/3-5[8:1],3/6-2[8:1],6/1-4[8:1]b*s5[8:1]b,1b,3b/7b,
{4}1-5[8:1]/2-6[8:1],1^6[8:1]/2^5[8:1],1-5[8:1]/2-6[8:1],{8}1b/2b,,,47,47,,12,78,6/5-7[8:1],,
{8}5/1-5[8:1],,1/6-8[8:1],,16,1>5[8:3]*s5[8:3],,,,,,,4-2[8:1]/7-5[8:1],,47,,
{16}3,5,4,5,3,,{8}6,5,6,{16}3,4,3,,6,4,5,4,6,,{8}3,4,3,{16}6,5,6,,
{16}3,5,4,5,3,,{8}6,5,6,{16}3,4,3,,7b,8b,7b,8b,,,2b,1b,2b-5[8:1],1b,,,,,,,
{16}6,5,6,5h[16:3],,,{8}4,3,2,{16}8,1,8,,3,4,3,4h[16:3],,,{8}5,6,7,{16}1,8,1,,
{16}6,5,6,5h[16:3],,,{8}4,3,2,{16}8,1,8,,2,1,2,1,3,8,3,8,4,,{8}4,3x/5x,2x/6x,
{4}7xq4[8:3],,D1/E1,3,2/1>5[8:3],,C,8,
{4}8/7V53[8:3],,C,1,2pp5[4:2],,6,{8}6,7,
{4}8/3>7[8:3],,B1/E1,5,3/4<1[8:3],,B6/B7,4,
{4}3/5>8[8:3],,B2/B3,5,4/6pp4[2:1],,3h[4:1],,
{8}24,3h[8:1],4,25,,7h[8:1],8,16,34,2h[8:1],1,3/8qq1[4:1],,2,2,3v5[8:1],
{8},,,6,46,3,4/2-7[8:1],,{4}8bx-5[8:1],6bx-3[8:1],4bx-8[8:1],6b,
{8}17,6h[8:1],5,47,,1,24,3,4/6V41[4:1],,1V73[4:1],2,,4,4,,
{8}57,6,24,3,5,46,28,,{16}1,1,1,1,1,1,2b-5[8:1]/8b-5[8:1],,{2},
{4}3-1[8:1]/7-5[8:1],3-5[8:1]/7-1[8:1],3/7-3[8:1],{8}3b/7b,,,15,15,6,5/7h[8:1],1,4/2h[8:1],8,
{4}1/7-3[8:1],7/2q6[8:1],2/8-4[8:1],8/3-7[8:1],3/5-2[8:1],5/8z4[8:1]b*-5[8:1]b,8b,2b/6b,
{4}2-4[8:1]/6-8[8:1],2-8[8:1]/6-4[8:1],6/2-6[8:1],{8}2b/6b,,,48,48,6,3,24,17,17,
{16}6,5,7,,3,4,2,,7,5,6,,45,,,,2,1,8,7,8,1,2,1,8,,{8}8,26,,
{4}2^5[8:1]/6^1[8:1],2-7[8:1]/6-3[8:1],2-5[8:1]/6-1[8:1],{8}2b/6b,,,48,48,6,15,3,45,6,
{4}7/8-4[8:1],8/7p3[8:1],7/2-7[8:1],2/6-2[8:1],6/4-7[8:1],4/1-4[8:1]b*s5[8:1]b,1b,3b/7b,
{4}3^8[8:1]/7^4[8:1],3-6[8:1]/7-2[8:1],3-8[8:1]/7-4[8:1],{8}3b/7b,,,26,26,3,45,6,57,8,
{8}1-3[8:1],8-4[8:1],1-5[8:1],8-6[8:1],1,8pp3[16:7]*qq5[16:7],,,,,,,4^1[8:1]/8^5[8:1],,4b/8b,,
{16}2,4,3,5,2,,6,,5,7,4,6,3,5,2,,7,5,6,4,7,,3,,4,2,5,3,6,4,7,,
{16}2,4,3,5,2,,6,,5,7,4,6,3,5,2,,7b,8b,6b,1b,,,2b,1b,3bv6[8:1],8b,,,,,,,
{16}7x,4,5,2h[16:3],,,4,,4,2,8,5,7,1,4,,2x,5,4,7h[16:3],,,5,,5,7,1,4,2,8,5,,
{16}7x,4,5,2h[16:3],,,4,,4,2,8,5,7,,5x/7x,,2,2,4,4,5,5,7,,{8}4b/8b,2b/6b,1b/5b,3b/7b,
{1}4V25-8-6[2:5]/8h[1:3],,
{1},7pp8-5[8:5],
{1},,
{1},
E
Re:MASTER
- MASTER譜面を追加しました。修正等ありましたらよろしくお願いします。 -- けもがみ (2026-11-04 08:22:36)
最終更新:2026年11月04日 08:28