BASIC
ADVANCED
EXPERT
MASTER
(200){4}B3/E4,,,B4/E4,{8},,,,,E5,,,{4}B6/E6,,,B5/E6,,,Ch[4:1],,E8,E7,E2,E3,E7,E6,E3,E4,{8}B5/E5,B3/E3,E7/B7,B1/E1,{16}E8,E7,E6,E5,E4,E3,E2,E1,{1}C,
{4}4hx[4:7],,,{8}6h[4:1],,,2h[4:1],,,8-4[8:1],,,,2b/6b,3,4,5h[4:1],,4,7,6,5,4h[4:1],,5,2,3,4,5,{4}4h[16:3]/6hx[16:3],4h[16:3]/6hx[16:3],{16}3h[8:1]/7hx[8:1],,,3h[8:1]/7hx[8:1],,,8x/2,,{8},1,1<2[2:1],,5,,,,{1}Ch[1:1],{16}1,2,3,4,1,8,7,6,2,3,4,5,8,7,6,5,
{4}4h[2:1]/3h[4:1],,,{8}6h[2:1],,5h[8:3],,,,6,4h[8:3],7h[4:1],,,,5h[8:5],,2h[4:1],,,,3/4,,4/5,,5/6,,6/7,,4/5,,2/3,,1h[4:3],3,4,5,6,7,8,,{16}E2,E8,E4,E6,{8}C,,1/8,2,3-5[8:1],,7-1[8:1],,2-6[8:1],,8-4[8:1],,3>5[8:3],,C,,4,,4,,1q7[8:3]*>7[8:3]/7,,,,,,8,7,1,2,7,6,2,3,6,5,3,4,5/6,7,1/8,2,3-8[8:1]/4-7[8:1],,{32}E4,Cf,E8,,{8},,,,,
{8}2b/6b,3,4,8,7,6,3>5[8:3],4,,,,,7,6,5,2,3,4,6q4[8:3],5,,,,,2,3,4,6,5,4,3pp5[8:3],4,,,,,2h[8:1]/6h[8:1],{24},7,8,1,2,3,4,5,6,{1}7b-3[4:3],{8}2,4,2/4,,2/5,5,2,6,2-4[8:1]/6,,2/8,,6,5,6/5,,6/4,4,6,3,6-8[8:1]/3,,5/6,,4h[8:1],8,4h[8:1]/8,,4h[8:1]/7,7,4h[8:1],6,{16}4/6,3,2,1,8,7,6,5,{8}4h[2:1],,,,5,5,{16}4,6,4,6,3,7,3,7,2,8,2,8,{4}1>7[8:3],Cf,,
{8}8h[8:3],,,6,5,4,3/7-4[8:1],2,1h[8:3],,,3,4,5,6/2q6[8:1],7,8h[8:3],,,6,5<3[2:1],4,3,,,,4-8[8:1],,8v1[8:1]*v5[8:1],,,,3h[8:3]/7h[8:3],,,,3/7V53[8:3],2/8,3/7,,,,1h[4:1],,,2h[4:1]/8h[4:1],,,3<6[8:1]/7,,,8>3[8:1],,,5<8[8:1],,,1-5[8:1],,,8,{16}6,4,6,4,6,4,8b,,,,2/6,,2/6,,7,8,7,,2,1,2,,3/8,,4,,5/6,,7,,1/8,,2/7,,3/6,,,,4/5,,1,8,2,7,3,6,4h[16:3],,,3h[16:3],,,2,,8h[16:3],,,7h[16:3],,,6,,6>3[8:1],,,,,,,,
1x/2,,,2x/3,,,3x/4,,{4}3x/4-7[8:1],2-5[8:1],8-3[8:1],6-1[8:1],3x<6[8:1],,{16}8x/7,,,7x/6,,,6x/5,,{4}6x/5-2[8:1],7-4[8:1],1-6[8:1],3-8[8:1],6x>3[8:1],,{16}2,1,,1,2,,2,3,,3,4,,4,5,,5,6,,6,7,,7,8,,8,1hx[8:1],,,2hx[16:3]/8hx[16:3],,,,7hx[4:3]/3hx[4:3],,,,{1},
{4},,,{24}5,4,,,,,{8},,,,,3/5,,,,,,4/6,,4h[4:1]/6h[4:1],,,4h[4:1]/6h[4:1],,,4h[4:1]/6h[4:1],,,7,,6,,5,,2,,3,,4,,3h[4:1]/5h[4:1],,,2h[4:1]/6h[4:1],,,1-5[8:1]/7,,8-4[8:1],,2,,2,3,4,5,6,5/6,,3/4,2,1,8,7-5[8:1],,2-4[8:1],,7,,5,5,,6,5,4,3,{4}2h[4:1],3h[4:1],4h[4:1],7h[4:1],6h[4:1],5h[4:1],1h[4:1],2h[4:1],3h[4:1],4>5[2:1],,,
{8}4-2[8:1],,,6-4[8:1],,,8,,5/8-4[8:1],,,,5-7[8:1],,,3-5[8:1],,,1,,4/1-5[8:1],,,,4-2[8:1],,,6-4[8:1],,,8,,5/8-4[8:1],,,,2h[4:5]/6,,,4,5,6,7h[2:1],,,,,,{4}4h[4:3]/5h[4:4],,,,,{12}E1,E2,E3,E4,E5,E6,E7,E8,E1,{4}C,,{16}2b/7b,,4,5,4,,6,5,6,,3,4,3,,6,5,7,,3,4,2,,6,5,8,,3,4,1,,2/8,,3,7,3,7,3,7,3,7,4,6,4,6,4,6,4,6,{8}5b,,E7,E6,E3,E4,E8,E7,E2,E3,E1,C,E5,,,,
{8}1/8,2,3/4,5,6-4[8:1],4-8[8:1],6,2,,2V46[4:1],1,2,,8,1/7,,4h[4:1],5,6h[4:1],5,3h[4:1],4,7h[4:1],5,2h[4:1],4,8h[4:1],1,{16}1,,,2/4,,,5/7,,{8}8-4[8:1],4-8[8:1],,,,2q6[8:1],1,2,,7p3[8:1],8,7,,1,1,2/8,{16}3/7hx[16:3],,,5hx[16:3],,,4hx[16:3],,,2hx[16:3],,,8,,8,,1/7,6,5,4,1,2,3,4,1,8,7,6,5b/1b,,,,{8}3/7,4,5/6,7,1/8,2,3/4,2/5,,4/7,3/6,2/5,1-4[8:1],8-5[8:1],1,8,3,4,5,6,2/7,{4}1>4[4:1]/8,4<7[4:1],7>2[4:1],2>4[4:1],5,{8},{12}6x,5,5,7x,5,5,8x,,,3x,4,4,2x,4,4,{2}1x-5[8:1],3b/7b,,{16}4/5,,,,7,6,5,4,1,2,3,4,8,7,6,5,
{8}2/4,3,5,4,7/5,6,4,5,2/4,3,5/4,,{16}7h[16:3],,,8,{8}7,1/6,4,3/5,{16}2h[16:3],,,1,{8}2,8/3,5,6/4,7<4[8:1],,4q8[8:1],,1,,2>5[8:1],,5p1[8:1],,8,,7,6,5,4,3,2,1>4[8:1]/5<8[8:1],,1-5[8:1]/5,,1b,,3-5[8:1],3,7-3[8:1],7,1-5[8:1],5,7-1[8:1],7,2-6[8:1],2,8<5[8:1],8,1>4[8:1],1,8-4[8:1],8,3,3,{16}2,1,3,8,4,7,5,6,4,5,3,4,{4}1h[2:1],,,{8}1,2,6,5,2,3,7,6,3,4,{12}8,7,6,1,2,3,{24}7,6,5,4,3<6[12:49],2,,,,3b,,,{4},,{32},,,,E8,E7,,,{4},,{32},,{64},{32}E2,E3,{64},{32},,,{4},,{8},{32},,E1,C,E5,E
Re:MASTER
- MASTER譜面を追加しました。修正等ありましたらよろしくお願いします。 -- Sugar (2026-04-01 22:58:46)
最終更新:2026年04月05日 14:04