アットウィキロゴ

奇々解体

アーティスト MURASAKI feat.かたたかんな

BPM BASIC ADVANCED EXPERT MASTER Re:MASTER
148 3 6 9+ 13 -

EXPERT MASTER Re:MASTER
譜面制作者 廻屋渉 廻屋渉 -

BASIC


ADVANCED


EXPERT


MASTER

(148){1},,,,,,,,,{2},
{32}2,3x,4x,5x,8,7x,6x,5x,
{4}1w5[8:1],1b,7-4[8:1]/3-8[8:1],
{8}7/3,,,6,7/5,8,2/4,1,
{4}8b/7b,8h[8:1]/7h[8:1],6h[8:1]/5h[8:1],4h[8:1]/3h[8:1],1h[8:1]/2h[8:1],8/7,
{8}1-5[8:1]/5,
{2}1/5-1[8:1],
{8}8/2,
{4}8<5[8:1]/2,8>3[8:1],8-4[8:1],8,5/3,6<3[4:1],
{8}3,
{4}3>6[4:1],
{8}5,
{4}5,5-3[8:1]*-7[8:1],5s1[4:1],
{8}8,7,
{4}6,2>5[8:1]/5<8[8:1],5p4[4:1],
{8}8,8,
{4}8,7b-5[8:1]/5b-1[8:1],7/5,2-4[8:1]/4-8[8:1],2/4,7h[8:1]/5h[8:1],
{8}1h[8:1]/2h[8:1],,,3,
{4}3-8[8:1]/4,5-1[8:1],4-8[8:1],6-1[8:1],2,2pp1[4:1],
{8}8,
{4}8-5[8:1],
{8}7,
{4}7b,6/4,
{12}7,5,6,3,4,2,
{4}2-5[8:1],
{6}5x-1[8:1],
{12}8x,
{4}8x<2[4:1],
{6}2,
{12}1,
{4}1-6[8:1]*-7[8:1],1-3[8:1]*-4[8:1],,
{12}E6,E7,E8,E2,E3,E4,
{8}7x/5x,6,2/4,3,6/5,8b/2b,,,
{2}3<6[4:21],
{4}E4/B3,
{2}2h[4:1],
{4}1,
{2}B2/E3/E2,8h[4:1],
{4}B8/E8,
{2}7h[4:1],
{4}7,
{2}E8h[32:1]/E7h[32:1]/B7h[32:1],1h[4:1],
{4}B2/E2,
{2}3h[4:1],
{4}4,
{2}B4/E4/E5,7-5[8:1]/3-1[8:1],2-4[8:1]/6-8[8:1],
{4}7/3,8-5[8:1]/4-1[8:1],8/4,
{8}8/1<5[8:1],2,1b/3b,2,8>4[8:1],7,8/6,7-5[8:1],8,4-2[8:1],3,5-1[8:1],6,
{4}2xh[4:1],
{8}1x,3/4,6/5,8/7,
{4}1pp8[8:3]/2,
{8}8,8,7<2[16:5],6,
{4}5,
{8}1,1,
{4}8bx/3bx,
{8}6/5,6-1[8:1]/5,7,5b,4,3-8[8:1],2,4b,
{4}5<1[4:1],1>5[4:1],5<1[4:1],1>5[4:1],5>3-6-2-7-1b[4:3],
{1}C1f,
{8}8-5[8:1]/2-5[8:1],7/3,
{4}8/2,
{8}6-1[8:1]/4-1[8:1],7/3,
{4}6/4,
{8}1bx/2bx,8/B4f/E4/E5,
{4}B6f/2/E7/E6,
{8}8-4[8:1]/1-6[8:1],2,
{4}8/1-3[8:1],1/5<8[8:1],2-6[8:1]/5,2/1h[4:1],
{8}5x,4,8/3,7/2,
{4}1/6qq1[2:1],
{8}8,8,1>7[8:3],3,
{4}5,
{8}8,8,
{4}1bx/6bx,
{8}3/4,3>8[8:1]/4,2,4,5,6<1[8:1],7,5,
{4}4V28[4:1],8V64[4:1],4V28[4:1],8V64[4:1],4qq1b[16:13],
{1}8qq5[16:9],
{8}2/4,8/1,
{4}7h[8:1]/5h[8:1],
{8}7/5,8/1-5[8:1],2/4,8-4[8:1]/1,7,
{4}8b/1b,6/2,
{8}3,4,6,5,4/3h[8:1],1h[8:1],8h[8:1],6h[8:1],
{4}5,
{8}8/4,8/4,
{1}2bh[2:7]/6bh[8:1],E6h[8:1],E5h[8:1],E4h[8:1],
{8}3<4v5<6[2:1],3h[8:5],,,,,,,7p2[2:1],7h[8:5],,,,,,,1p8b[4:3],1,,,,,,,
{4}C1,,,8V24[8:1]/7,
{8}8b/6b,7,1V75[8:1],2,1/3,2>5[8:1],1,6-1[8:1],7,4-8[8:1],3,
{4}7xh[4:1],
{8}8x,6/5,3/4,1/2,
{4}8qq1[8:3]/7,
{8}1,1,2>7[16:5],3,
{4}4,
{8}8,8,
{4}1bx/6bx,
{8}3/4,3v8[8:1]/4,1/2,4b,5,6v1[8:1],8/7,5b,
{4}4p8[4:1],8<4[4:1],4>8[4:1],8p4[4:1],4-2-7-5-1b[8:5],
{8}C1f,,,
{4}8,8,
{8}8/3,1q5[8:1]/2v5[8:1],3,
{4}1/2,
{8}6v1[8:1]/5q1[8:1],7/4,
{4}6/5,
{8}8b/7b,B5f/1/E6/E5,
{4}7/E3/E4f/B3,
{8}1-5[8:1]/8-3[8:1],7,
{4}1/8-6[8:1],
{8}8/4-1[8:1],3,7-3[8:1],6,
{4}8h[4:1],
{8}4x,5,1/6,7/2,
{4}8/3pp8[16:7],
{8}1,1,8-6-4-2[16:5],6,
{4}4,
{8}1,1,
{4}8bx/3bx,
{8}6/5,6/5>1[8:1],8/7,6/5,7,8<4[8:1],1,8/2,
{4}2-6[8:1],1-5[8:1]/2,8-4[8:1]/1,8/7-3[8:1],8>6>8[4:3]/7,
{1}E5f/E4/B4h[2:1],
{8}7/6,8/1,
{4}2h[8:1]/3h[8:1],
{8}2/3,8v3[8:1]/1,7/6,8/1v6[8:1],2,
{4}8b/1b,8/4,
{8}7,6,5/4,3,
{2}2-5[8:1]/6-1[8:1],
{4}8h[2:1],
{8}3-7[8:1],4,
{4}3b,1/5,
{8}2,3,6/4,7,8<5[8:1],5>2[8:1],8,1,
{4}1,
{8}2-5[8:1]/3-6[8:1],8/1,
{4}3bx/2bx,7/4,
{8}3<6b[4:1],2,6qq3b[2:1],7,8,8,1,1,
{4}1h[4:1],
{8}8,7/6,
{1}8bp4[4:3]/4b,
{8}3<6[4:3],3,,,,,,,7-1[4:3],7,,,,,,,2,2,,,
{4}1/3,8-5b[8:1]/4-1b[8:1],
{1},,,
E

Re:MASTER


名前:
コメント:

タグ:

+ タグ編集
  • タグ:
最終更新:2026年04月05日 21:37