BASIC
ADVANCED
EXPERT
(225){4}E7,C,{2}E3,
{1}8b/1b,
{4}2,2,{2}2/1,
{4}7,7,{2}7/8,
{4}6,6,4,4,
5,3,{2}3/4,
{4}2,2,{2}3/4,
{4}7,7,{2}6/5,
{4}7,7,1,1,
8,2,{2}2h[4:1]/1h[4:1],
{4}7,7,{2}7/8,
{4}2,2,{2}1/2,
{4}3,3,{4}4,4,{4}5,
5,{2}4/6,
{4}8,8,{2}7/1,
{4}1,1,{2}8/2,
{1}7p3[2:1],
{4}1,1,{2}2/8,
{4}3,3,{2}4/2h[2:1],
{4}3,4,{2}3/5,
{4}6,6,{2}5/7h[2:1],
{4}6,5,{4}4/6,,2,2,{2}1/3h[1:1],
{4}1,1,{2}8,
4h[4:1]/7h[4:1],{4}6h[4:1]/5h[4:1],,5/4,
{4}3/4,3/4,2b,
3,3<6[2:1],,,7,
{4}8,8h[1:2],{1}5-8-6-4[4:5],
{4},,,,E3,
E4,{2}E5,
{4}E7,E6,{2}E5,
{1}B7/B3/Cfh[8:7],
{4},,,8x,
2/1,2/1,3/4,3/4,
5/6,6/5,7/8,8/7,
{2}1-5[4:1],7-3[4:1],
{2}2-6[8:1],{4}7,7,
7/8,8/7,{4}5/6,5/6,{4}4/3,
4/3,1/2,2/1,
7/8,8/7,{2}6/1,
{4}E7,C,{4}E3,,1,
{4}1,4/2,2/4,
8,8,7/5,{4}5/7,2h[4:1],
{4}1,7h[4:1],8,
3h[4:1],4,5,5/6,
7,7,{4}6/8,6/8,{4}2,
2,3/1,{4}1/3,
2,{4}1,8,7,
6/4,5/3,{2}6/2,
{8}2h[8:3],,,3h[8:3],{4},4,{8}5h[8:3],
,,6h[8:3],,,{4}7,
8b,{4},,,2,
{4}1/2,{8}3,3,{4}4,
6,6/5,{8}7,7,{4}8,
8/2,2/8,7/1,1/7,
{4}8/2,2/8,7/3,,
{4}7,7/8,6,5,
3,3/4,{8}2,2,{4}1,
2/4,4/2,5/7,7/5,
4,4,3/5,5/3,2h[1:1],
,4,4,
{4}6h[1:1],,4,4,
{2}2h[2:1],4h[2:1],
{2}5h[2:1],7,
{2}7h[1:1],{4}5,5,
{2}3h[1:1],{4}5,5,
{2}7h[2:1],5h[2:1],
4h[2:1],2,
{4}2,2,1/2,2/1,
7,7,7/8,7/8,
{2}7h[4:1]/8h[4:1],1h[4:1]/2h[4:1],
{1}B7/E7/B6/B5/E5/B4/B3/B2/E3/Cf,
{2}8-6[4:1],2-4[32:9],
{2}1-5[4:1],4w8[2:1],,,,
{4}6/2,2/6,{2}6/2,
5h[4:1]/7h[4:1],5h[4:1]/7h[4:1],
{4}E8,E7,{2}E6,
4h[4:1]/2h[4:1],{4}E5,E4,
{1}E3,
5<8[4:3]/1>4[4:3],
{2},7/5,
{1}6bh[4:3]/4bh[4:3],
{4}3/7,3/7,{2}7/3,
{4}2b/1b,2/1,4/3,3/4,
5/6,6/5,7/8,7/8,
5[2:1]/1q6[2:1],
{4},,7,7,
7/8,8/7,5/6,5/6,
4/3,4/3,2/1,2/1,
3/8,3/8,1/6,1/6h[4:3],
8b,1b,{2}8b,
{4}2h[4:1],1,7h[4:1],8,
3h[4:1],4,6h[4:1],{4}5,5/6,
,{4}7/8,2/1,3/4,
5/6,5/6,4/3,4/3,
6h[4:1],5,3h[4:1],4,
7h[4:1],8,2h[4:1],1,
2/1,3/4,5/6,6/5,
{4},5b/7b,{4}4b/2b,{2}1b/8b,
{8}6h[8:3],,,7h[8:3],,,{4}8,
{8}1h[8:3],,,2h[8:3],{4},3,{1}4bh[8:5]/8bh[8:5],
{4}5/7,4/5,{2}4h[4:1]/2h[4:1],
{4}2/4,4/5,{2}5h[4:1]/7h[4:1],
{4}6,6/5,3,3/4,
1,1,{2}2/8,
{4}1/2,1/8,{2}7h[4:1]/8h[4:1],
{8}7/8,8/1,1h[4:1]/2h[4:1],,
4h[4:1],5h[4:1],6h[4:1],
{4}8,{4}8,{2}7/1,
{4}4/2,4/5,{2}5h[4:1]/7h[4:1],
{4}5/7}5/4,4h[4:1]/2h[4:1],,{4}3,
4/3,6,{4}5>2[2:1]/6<1[2:1],
{4},,,
{2}2/1,
{4}1/2,3/8,7/8,6/1,
{4}2pp2[1:1]/7qq7[1:1],
,,,,
{4},,1,1,
{4}82,8/2,{4}B7h[4:1]/Ch[4:1]/B3h[4:1],
,,,,
E
MASTER
(225)
{4}E7,C,E3,1x<2[2:1]b,Cf,,,,
{4}2/E6,7/E4,2h[4:1]/B5h[4:1],,
{4}7/E4,2/E6,7h[4:1]/B4h[4:1],,8/1,
{8}7,7h[4:1],,6,6,,
{4}8/7,7/6,7h[4:1]/6h[4:1],,
{4}2/E6,7/E4,2h[4:1]/B5h[4:1],,
{4}7/E4,2/E6,7h[4:1]/B4h[4:1],,
{4}5/6h[4:3],7,1,3,2x/4x,1x/3x,1x/2x,8b,
{4}2/E6,7/E4,2h[4:1]/B5h[4:1],,
{4}7/E4,2/E6,7h[4:1]/B4h[4:1],,8/1,
{8}7,7h[4:1],,6,6,,
{4}8/7,7/6,7h[4:1]/6h[4:1],,
{4}2/E6,7/E4,2h[4:1]/B5h[4:1],,
{4}7/E4,2/E6,7h[4:1]/B4h[4:1],,
{4}3/6,2/5,6/3,4/7pp4[2:1],3h[2:1],,,1x,
{4}D8/A7/E8,D2/A2/E2,D6/A5/D5/A4/D4,
{8}7,7h[4:1],,5,,2,2h[4:1],,
{4}4,3h[8:1]/5h[8:1],5h[8:1]/3h[8:1],6h[8:1]/4h[8:1],
{4}4h[8:1]/6h[8:1],5h[8:1]/3h[8:1],6h[8:1]/4h[8:1],
{4}3h[8:1]/5h[8:1],6/4,7-4[8:1],1,2-5[8:1],
{8}8,8h[4:1],,6,,1,1h[4:1],,3,,7,7,5,,2,2,
{4}4V68[4:1],8V24[4:1],4,8,6b/1b-6[8:1],7-2[8:1],5p4[8:3],
{8},,8x,8x,,7<5v4>2[8:3],,1,1h[4:1],,,,,4b,5b,6b,7b,,
{4}B7h[2:1]/B6h[2:1]/E7h[2:1]/A7h[2:1]/A6h[2:1]/D7fh[2:1],,,
{2}1bx/8bx,2h[4:1]/4h[4:1],7h[4:1]/5h[4:1],
{4}4/2,3/4,7/5,5/6<2v4[2:1],4b,,,
{8},8b/7b,,8b/1b,,1b/2b,2b/1b,,
{4}3-1[8:1],6-8[8:1],4-2[8:1],{8}5,5,
{4}3-1[8:1],6-8[8:1],4-2[8:1],{8}5,5,
{4}3-1[8:1],4,6<2<6[2:1],3,4,4h[4:1],7,{8}4,5,
{4}6-8[8:1],3-1[8:1],5-7[8:1],{8}4,4,
{4}6-8[8:1],3-1[8:1],5-7[8:1],{8}4,4,
{8}5/3,,7,7,7/5,7,2,2,2/4,2,
{4}E7f,Cf,E3f,
{4}7-5[8:1],2-4[8:1],8-6[8:1],{8}1,1,7<4pp3-1[4:3],,
{4}3h[4:3],,,,8x,2>6>2[2:1],7,8,8h[4:1],3,{8}8,1,
{4}2-4[8:1],7-5[8:1],1-3[8:1],{8}8,8,2<7qq5<6-3[4:3],,
{1}4h[4:3],
{8}2,2,2/4,2,7,7,7/5,7,E3f,,Cf,,E7f,
{8}1,1,,7h[4:1]/5h[4:1],,,2/4h[4:1],,
{8}3,3,5,5,4,3,5,6,6,E5,,8b,,3b/7b,3b/7bp3[8:1],,7b/2h[8:3],,,
{4}1b,8/3,1/6,
{8}7,7h[4:1],,8,8,6,6,1,1,3,3,2,2h[4:1],,5,5,2/6,2/6-4[8:1],,
{8}3,3V17[4:1],,5h[8:5],,,,,7,7,,2/4,2/4,,7,5,6,3,4,2h[4:1],,4,,
{8}3,3,2/4,,6,6,5/7,5/7-1[8:1],,4,
{4}4,1/3,8<4[2:1],4,3,2h[4:1],4qq4[8:3]*pp4[8:3],,,
{4}5x/3xh[4:1],4<8[4:1],,5>1[4:1],,4<8[4:1],,
{4}5,7/3,7/3-8[4:1],5,6-1[4:1],4,3-8[4:1],6,7-5v4-2[2:1],2,1,
{8}1h[4:1],,,3h[4:1]/5h[4:1],,,
{4}7-5[8:1],7/1-3[8:1],1/8-4[8:1],8,
{4}5/3>6<3[1:2],4,4,4,4,5,5,5,5,E1/B1/B8,E7/B7/B6,B2/B3/E3,
{4}1x-3[8:1]b/8x-6[8:1]b,8b/A1f/D2,,,
{4}3/5,4V28[4:1],8V64[4:1],4,8,Cf,,1x/8x,1x/8x,
{8}2,2,1,3,7,7,8-4[8:1],6,
{4}8<5[8:1],8>3[8:1],8,5,
{4}6qq6[2:1],5h[2:1],,,7x,E7,,E8,6qq6[2:1],5h[2:1],,,7x,E4,,E3,
{4}8<5[4:1],,1>4[4:1],,7-5v4-2[2:1],,
{4}1,1-5[8:1]b,1b/4h[1:1],,,,E7/D7/A6f,E3/D3/A3f,E6/D6/A5f,
{8}6-8[8:1],,3-5[8:1],3,7-1[8:1],7,4,4,
{8}6-8[8:1],6,3-5[8:1],3,7-1[8:1],7,4,4,
{4}6-8[8:1]*-1[8:1],,3>7>3[2:1],4,5,5h[4:1],2,{8}5,4,
{8}3-1[8:1],,6-4[8:1],6,2-8[8:1],2,5,5,
{8}3-1[8:1],3,6-4[8:1],6,2-8[8:1],2,5,5,
{8}4/6,,3,3,1/3,3,6,6,
{4}6/8-2[8:1],8x/6x-4[8:1],6x/7x-3[8:1],8x/7x,2-4[8:1],
{8}7-1[8:1],7,3-5[8:1],3,8,8,2V41<8v5<7p3[8:7],,
{4}6h[1:1],,,,2x,7<3<7[2:1],2,1,1h[4:1],6,{8}5,6,
{8}7-5[8:1],,2-8[8:1],2,6-4[8:1],6,1,1,7-2V85qq4-6[4:3],,
{1}3h[1:1],
{8}7,7,7/5,7,2,2,
{4}2/4-6[8:1],4x/2x-8[8:1],2x/3x-7[8:1],
{8}1x/3x,2,2,,5h[4:1]/7h[4:1],,,2/4h[4:1],,
{8}3,3,5,5,4,3,5,6,6,E5,,8-4[8:1],8bh[2:1],,,,1b,,,
{4}2/E6,7/E4,2/B5h[4:1],{8}1,1,
{4}7/E4,2/E6,7/B4h[4:1],{8}8,8,2/5h[4:1],,3,3h[4:1],,1,
{4}1-5[8:1],1>4[8:1],1<6[8:1],1,3,
{4}2/E6,7/E4,2/B5h[4:1],{8}1,1,
{4}7/E4,2/E6,7/B4h[4:1],{8}8,8,7x/1x,7x/1x,2,2,3/5,3/5,
{4}6,B7/E8/A8/D1/A1/E2/B2,B6/E6/A5/D5/A4/E4/B3,Cf,1x,
{4}2/B5,7/B4,2/E6fh[4:1],{8}1,1,
{4}7/B4,2/B5,7/E4fh[4:1],{8}8,8,1,,2,2h[4:1],,4,
{4}4-8[8:1]b,4b>1[8:1]b,4b<7[8:1]b,4b,3,
{4}2/B5,7/B4,2/E6fh[4:1],
{8}1,1,,1pp2[8:3]/8qq7[8:3],,,,,,1bx/8bx,1/8,,3/5,3/5,6,6,
{4}7/1-5[8:1],1>5[4:1]*<5[4:1],,,3x/7x,
E
Re:MASTER
最終更新:2026年06月25日 11:43