BASIC
ADVANCED
EXPERT
(135)
{2}3h[4:1]/5h[4:1],4h[4:1]/6h[4:1],
{8}5/7,,5/7,,,6,6-1[4:1],,
{4},,2,1/2-5[4:1],
{8},,,,,5,5,,
{2}4h[4:1]/6h[4:1],3h[4:1]/5h[4:1],
{8}2/4,,2/4,,,3,3h[4:1],,
{4}E4,B2,E8,B6,
{4}Ch[2:1],,,1x/8x,
{4}1x/8x,,2,2,
{4}3/8,3/8,1/6,1/6,
{4}5/2h[2:1],4,5,5/6,
{4}4/7h[2:1],5,4,3/4,
{4}2h[4:1],1,7h[4:1],8,
{2}1>4[4:1],8<5[4:1],
{4}3h[4:1],4,6h[4:1],5,
{4}4/5,3/4,2h[4:1]/4h[4:1],,
{4}1bx,2/4,5,3/4<5-1[2:1],
{8},,,,,2,2,,
{4}3h[4:1]/4h[4:1],,1/2,7/8,
{4}6h[4:1],5,5h[4:1]/7h[4:1],,
{4}8bx,6,4,6/5>4-8[2:1],
{8},,,,,7,7h[4:1],,
{8}8,,5/6,,3/4,3/4,,1,
{4}1-4[4:1],,,3b/5b,
{8}4b/2bh[4:1],,1,1,1,,2/8,,
{8}1/7h[4:1],,8,8,8,,1/7,,
{8}6/2h[4:1],,4,4,4,,3/4,,
{8}1,1,8,8,Ch[2:1],,,,
{4}E1f,E2,E3,E4,
{4}E6,E7,E8h[4:5],,
{4}B2/E2,C,B6/E6,E5,
{1}Ch[2:1],
{4}8,8h[4:1],2,2h[4:1],
{4}4,4h[4:1],6,6h[4:1],
{8}8,8,5/7,,4,4,3z7[2:1]/5h[1:1],,
{4},,,8bx,
{1}4b/1bh[4:7],
{4}B3/E4,B6/E6,D5/E5,Cf,
{4}1x/8xh[4:3],7,1,7,
{4}1h[8:1]/2h[8:1],1h[8:1]/2h[8:1],3/8,5/6,
{4}8/1h[4:3],2,8,2,
{4}7h[8:1]/8h[8:1],7h[8:1]/8h[8:1],1/6,3/4,
{4}2/5h[4:3],8,2,8,
{4}1h[8:1]/4h[8:1],1h[8:1]/4h[8:1],2/3,8/1-5[8:1],
{8},,4bx/6bx,,7,7,5,,
{8}2,2,4,,A5/B6/E6/E7,,A4/B3/E3/E4,,
{8}7,7,7<4[4:1]/8>3[4:1],,,,,,
{4}3h[4:1],1h[4:1],8h[4:1],6h[4:1],
{8}5b,,7/8,,1/3,1bxh[4:1]/3bxh[4:1],,,
{8}4x/8x,,5/6,,2/4,2bxh[4:1]/4bxh[4:1],,,
{8}1x/5x,,7,7,5,5,8h[4:1],,
{4}E6f,B2/E2,B6/B7/E8,A3/B4/E4/E5,
{2}1h[4:1]/2-4[8:1]b,2-5[8:1]b/8h[4:1],
{4}6h[8:1]/7h[8:1],6h[8:1]/7h[8:1],5/8,6/7,
{2}7-5[8:1]b/8h[4:1],1h[4:1]/7-4[8:1]b,
{4}2h[8:1]/3h[8:1],2h[8:1]/3h[8:1],1/4,2/3,
{2}1-7[8:1]b/2h[4:1],1-6[8:1]b/3bxh[4:1],
{8}5bxh[8:1]/7bxh[8:1],,5bxh[8:1]/7bxh[8:1],,8,8bx,1/8,,
{2}7h[4:1]/8-2[8:1]b,6bxh[8:1]/8-3[8:1]b,
{4}2h[8:1]/4h[8:1],2h[8:1]/4h[8:1],1-4[8:1]/5-8[8:1],,
{2}3bx/7bx,4h[4:1]/8h[4:1],
{4}5b/7b,5bq2[4:1]b/6b<1[4:1]b,,,
{4}1/2h[4:1],3h[4:1],4h[4:1],1h[4:1],
{4}2b,1bq6[4:1]b/2b>5[4:1]b,,,
{4}7h[2:1],5,1h[2:1],E4,
{4}7b,7bp3[4:1]b/8b>3[4:1]b,,,
{4}2h[2:1],1,8h[2:1],E7,
{4}2b,2b/6b,1b/7b,3b/7b-4[8:1],
{4},1bx,2/4,{8}6,6,
{8}5/7,,3,3,2/4,,4/6,,
{8}4/6,,7,7,6/8,,2,2,
{4}1/3,2-5[4:1]/4p6[4:1],,,
{4}7h[1:1],B5/B6,,E5,
{4}2h[4:3],B3/B4,,E5,
{4}3h[4:1],7h[4:1],5h[4:1],3h[4:1],
{4}5bxh[2:1],6bx-8-3[16:5],
E
MASTER
(135)
{4}6-4[8:1],3,6-4[8:1],3,
{8}6-4[8:1],4-2[8:1],,,,1,1h[4:1],3,3,4,3/5,6,4/7,7v5[4:1],,5q1[4:1],,2,
{4}2h[4:3],3h[8:1],3h[8:1],4-6[8:1],2,4-6[8:1],2,
{8}4-6[8:1],2-4[8:1],,,,7,7-5[8:1],7,3-1[8:1],3,6-2[8:1],6,1,1h[4:1],,
{8}8,1/7-3[8:1],6/2-6[8:1],,,,2/7,2/7,,D2/A1/D1f/A8/D8,,
{16}3,4,3,,2/4,,3,4,,6,5,,5/6,,7,5,,5,6h[8:1],,5x,5,,5/7,,5/7,,,5b/6b,,,,
{16}6,5,6,,7/5,,6,5,,3,4,,4/3,,2,4,,4,3h[8:1],,4,3,4,3,,2/4,,,3b/4b,,,,
{16}3,4,2,,4/3,,2,4,,6,4,,5/7,,8,8h[8:1],,6,6h[8:1],,7x,7,,5/6,,5/6,,,4b/7b,,,,
{16}6,5,7,,5/6,,6,5,,3,4h[8:1],,2h[8:1],,5,5,,1,1,,
{4}2h[8:1]/6h[8:1],2h[8:1]/6h[8:1],5b/3b-1[8:1],4,3-1[8:1],4,
{8}3-1[8:1],5-3[8:1],,,,8,1,2,3/4,5,4/6,7,8,8h[8:5],,E8,E7,E6,E5,E4,
{4}2h[8:1]/1h[8:1],2h[8:1]/1h[8:1],3-5[8:1],7-1[8:1],3-1[8:1],7-5[8:1],
{8}2,3<6[8:1],4,3,,8,5/7,6,5/3,2,1/6,7,3/8,3h[8:7]/8-4-8[8:5],,,,,,,,,
{8}4/8,,A5/D6f/A6/D7/A7,,
{16}3,4,3,,2/4,,3,4,,4,3,,5,5,4,6h[8:1],,5,7h[8:1],,6,6,,5/7,,5/7,,,4b/8b,,,,
{16}7,5,6,,5/6,,7,5,,5,6h[8:1],,4,5,3,4,,2/5,2/5,,
{4}3xh[8:1]/4xh[8:1],4xh[8:1]/3xh[8:1],2/4h[4:5],2,3,3,5,5,4/6,4/6,
{4}7,7<5[4:1],3,1-4[4:1],4,5,3h[8:1]/6h[8:1],3h[8:1]/6h[8:1],
{8}5/4,5/4,5/3,5/3,5/2,5/2,5/1,5/1,4/5,4/5,4/6,4/6,4/7,4/7,4/8,4/8,
{16}2,1,2,1,3,8,3,8,4,7,4,7,5,6,5,6,
{16}4,3,2,1,8,7,6,5,
{32}1,2,3,4,5,6,7,8,
{4}1x-6[8:1],1b/E4/E5/B4f,,,,2/4,5/7,
{16}1/8,,6,4,7b/3b>7[4:1],,,,
{4}7>3[4:1],3>7[4:1],7,5-3-5[4:1],
{8}8/5-7-5[4:1],8,2q3[4:1],2,,,
{4}7<3[4:1],3<7[4:1],7<3[4:1],3,1-7-1[4:1],
{8}4/1-3-1[4:1],4,6q7[4:1],6,,,
{4}2>6[4:1],6>2[4:1],2>6[4:1],6,8-2-8[4:1],
{8}5/8-6-8[4:1],5,3pp2[4:1],3,,,1x,,
{16}8-4[8:1],1,7,,8b/4,,3,3,7>1[8:1],,1,,7<5[8:1],,5,5,
{16}7-3[8:1],,1,1,7<5[8:1],,5,5,7-3[8:1],,1,,7,,,,
{8}2>5[8:1]/5<8[8:1],1,,,7<4[8:1]/4>1[8:1],8,,,
{4}2-4[8:1]/5-1[8:1],5/2<4[4:1],4,2-4[8:1],
{16}2-6[8:1],,8,8,2>4[8:1],,4,4,2-6[8:1],,8b,,2>4[8:1],,4,4,
{16}2-6[8:1],,8,,2>4[8:1],,4,4,2-6[8:1],,8b,,2,,,,
{8}7<4[8:1]/4>1[8:1],8,,,2>5[8:1]/5<8[8:1],1,,,
{4}7-5[8:1]/4-8[8:1],4/7,2/6,
{4}3-1[8:1]/7-1[8:1],7-5[8:1]/3-5[8:1],3-1[8:1]/7-1[8:1],3/7,6/4-2[8:1],
{8}4/6-8[8:1],5,6/4-2[8:1],5,4/6,5,
{4}2x-8[8:1]/6x-8[8:1],2-4[8:1]/6-4[8:1],2-8[8:1]/6-8[8:1],6/2,3/5-7[8:1],
{8}5/3-1[8:1],4,3/5-7[8:1],4,5/3,4,
{4}7x-1[8:1]/3x-5[8:1],3-1[8:1]/7-5[8:1],3-5[8:1]b/7-1[8:1]b,3/7,8/4-2[8:1],
{8}4/6bx-8[8:1],5,6/4-2[8:1],5,4/6,5bx,
{4}2x-8[8:1]/6x-4[8:1],6-8[8:1]/2-4[8:1],2bx-8[8:1]/6bx-4[8:1],
{4}6bx-8[8:1]/2bx-4[8:1],2/6,
{4}2/6,7h[8:1]/8h[8:1],1h[8:1]/2h[8:1],3/8v6-4[4:1],2-7[8:1],,
{4}1b/2b,7>1[8:1]/3<5[8:1],7/3,4qq6[4:1],8,7-2[16:1],5p1[8:1],
{32}A8,E8,B7,B6,
{8},2b/1bx-7[8:1],,1V35[4:1],,6,7,
{4}8w4[8:1],8,2-6[8:1]/6-2[8:1],2-8[8:1]/6-4[8:1],,1-4[8:1]*-6[8:1],C,
{8}8-5[8:1],4v1[8:1],8>7[4:1],4,,,
{4}8-3[8:1]*-2[8:1],8-5[8:1]*-6[8:1],8pp4[4:1],7,6v1[8:1],
{8}6/3v8[8:1],4,3/6p3[16:5],5,Cf,,,,1-4[8:1]/7-3[8:1],,1b/7b,,
{16}3xh[8:1]/4xh[8:1],,,5h[8:1]/6h[8:1],,,
{8}7/8,7-3[8:1],8-2[8:1],7<2[4:1],8,
{4}7,1,2-6[8:1]/8-5[8:1],2/8,
{16}5xh[8:1]/6xh[8:1],,,4h[8:1]/3h[8:1],,,
{8}1/2,2-6[8:1],1-7[8:1],2>7[4:1],1,
{4}2,8,7/3V17[4:1],7V53[4:1],3,C,2/6V82[4:1],2V46[4:1],6,C,
{8}1/7,6,8/2,3,1/7,5,8/2,4,8/7,1/2,3/4,5/6V83[8:1]b,8/7,,,,
E
Re:MASTER
最終更新:2026年06月26日 00:00