アットウィキロゴ

バッド・ダンス・ホール〈でらっくす〉

アーティスト ぱなまん/カラスヤサボウ

BPM BASIC ADVANCED EXPERT MASTER Re:MASTER
152 3 6 11 13+ -

EXPERT MASTER Re:MASTER
譜面制作者 サファ太 はっぴー -

BASIC


ADVANCED


EXPERT


MASTER

(152)
{4}3h[8:1]/5h[8:1],3h[8:1]/5h[8:1],{16}3,4,,4,,45,,45,
{8},6,{4}6h[4:1],{8}4,{16},3,,3,{8}5,
{4}4h[8:1]/6h[8:1],4h[8:1]/6h[8:1],{16}6,5,,5,,45,,45,
{8},3,{4}3V15[4:1],{2}5,
{4}4b/6-1[4:1],4,4,4,
{4}1-5[4:1]/4,4,4,4,
{4}46,46,{16}7,5,,46,,35,,2,
{16}4,3,6,5,{4}8b,{8}78,78,{4}1-5[8:1],

{4}1/6-4[8:1],26,{16}2,4,,12,,78,,5h[16:3]/7h[16:3],
{4},{16}6,4,{8}5,{16}2h[8:1]/4h[8:1],,,4h[8:1]/6h[8:1],,,{8}37,
{8},26,{16}3,4,{8}2,{16}6,5,{8}7,{16}3,4,{8}2h[4:1],
{8},4qq1[8:3],5,6,{4}6,8x-4[8:1],
{4}3-5[8:1]/8,37,{16}7,5,,78,,12,,2h[16:3]/4h[16:3],
{4},{16}3,5,{8}4,{16}5h[8:1]/7h[8:1],,,3h[8:1]/5h[8:1],,,{8}26,
{8},37,{16}6,5,{8}7,{16}3,4,{8}2,{16}6,5,{8}7h[4:1],
{8},5,{4}46,37,{8}2-6[8:1]/8-4[8:1],28,

{4},{8}3v1[8:1]/7v5[8:1],37,{4},{8}26,7,
{8}8<4[4:1],8,4<8[4:1],3,2h[16:3],,,4x/6x,
{8},35,3-6-2[4:1]/5,6,7,{16}8,8,{8},1-5[8:1]/7,
{8},6,6,35,{4}2b/6b,1x-5[8:1]/7-4[8:1],
{4},2v4[8:1]/6v8[8:1],,{8}37,3/7h[4:1],
{8},5,4,3,{16}2h[8:1]/4h[8:1],,,5V31V74[16:5]/7h[8:1],,,{8}6h[8:3],
{2},{8}4-1[8:1]/5-8[8:1],36,{4}4x/5x,
{32}1,2,3,4,5,6,7,8,{4}Cf,{8},18,{4}18,

{16}7h[8:1]/8h[8:1],,,2h[8:1]/3h[8:1],,,{8}5-2[8:1]/7,{4}5-8[8:1]/7,{8},1,
{16}1h[8:1]/2h[8:1],,,6h[8:1]/7h[8:1],,,{8}2/4-7[8:1],{4}2/4-1[8:1],{8},8,
{4}7-4[8:1]/8-3[8:1],7b/8b,1V75[4:1],5V31[4:1],
{4}1,5,{16}5b/7b,,,1b/8b,,,{8}2b/4b,
{8},1x/3x,{16}7,5,,78,{8},68,{16}2,4,,12,
{8},13,{16}7,5,,78,{8},68,{4}4qq5[4:1],
{2}5x<3[4:1],{8}4,4,{4}35,
{16}3,5,4,6,{4}3-6[8:1]/7-2[8:1],3b/7b,4b/8b,


{32}8-3[16:1],E8,B7,B6,E6,,{16}8V64[16:3],,,{8}8,,1,2x-8[8:1]/4x,24,
{8}6,{16}7,7-1[8:1],,5,{8}5,4,3,24,24,
{32}1-6[16:1],E2,B2,B3,E4,,{16}1V35[16:3],,,{8}1,,8,5x/7x-1[8:1],57,
{8}3,{16}2,2-8[8:1],,4,{8}4,5,6,57,57,
{8}6-2[8:1],{16}5,6h[16:3],{4},{8}3-7[8:1],{16}4,3h[16:3],{4},
{8}8^5[8:1],{16}1,8h[16:3],{4},{8}13,2,68,68,
{4}5/7V15-3[2:1]b,B3/B4/Cf,,2x-7[8:1],
{4}2/6-3[8:1],4-1[8:1]/6,4/5-8[8:1],1x/5,

{32}1-6[16:1],E2,B2,B3,E4,,{16}1V35[16:3],,,{8}1,,8,5x/7xp3[8:1],57,
{8}3,{16}2,2q6[8:1],,5,{8}5,7,8,57,57,
{32}8-3[16:1],E8,B7,B6,E6,,{16}8V64[16:3],,,{8}8,,1,2x^8[8:1]/4x,24,
{8}5,{16}6,6-8[8:1],,1,{8}1,,A3/D4f/E4,{4}2-6[8:1]/A8f/D1/E1,
{4}2bx/7-3[8:1],4-1[8:1]/7bx,4bx/5-8[8:1],2^5[8:1]/5bx,
{4}2bx/6-2[8:1],4-1[8:1]*-7[8:1]/6bx,4bx,2b/6b,
{4}1^4[8:1]/7^4[8:1],1b/7b,{8}35,35,46,46,
{16}7b,5b,7b,5b,6b,4b,5b,3bh[8:1],,4x,,6,{8}5-2[8:1]*-8[8:1],47,

{4}5b,1h[4:1],{16}3x,3x,,E3/E5,,E2/E6,,E1/E7,
{8},5,56,68,{16}68,,,13,,,{8}56,
{8},34,2-5[8:1],2,7-4[8:1],7,1,1h[4:1],
{8},4,{4}5,3-1[16:1]/6-8[16:1],3x/6x,

{48}2^7[8:1],D3,A3,D4,A4,D5,,,,{16}2V46[16:3],,,{8}2,,8,5x/7x,57,
{8}78,{16}3,4,,2,{8}1,56,7,18,18,
{48}7^2[8:1],D7,A6,D6,A5,D5,,,,{16}7V53[16:3],,,{8}7,,1,2x/4x,24,
{8}12,{16}6,5,,7,{8}8,34,34,2x/5x,2x/5x,
{8}3V17[8:1],{16}4,3h[16:3],{4},{8}6V82[8:1],{16}5,6h[16:3],{4},
{8}1xV35[8:1],{16}8,1h[16:3],{4},{8}78,6,12,3,
{4}2V84-6[2:1]b/4,B5/B6/Cf,,7-2[8:1],
{4}3-6[8:1]/A7f,5-8[8:1]/A3f,4-1[8:1]/A5f,8x/A4f,

{48}7^2[8:1],D7,A6,D6,A5,D5,,,,{16}7V53[16:3],,,{8}7,,1,2x/4x,24,
{8}12,{16}6,5,,7,{8}8,34,2,1x/8x,1x/8x,
{48}2^7[8:1],D3,A3,D4,A4,D5,,,,{16}2V46[16:3],,,{8}2,,8,5x/7x,57,
{8}34,{16}7,5,,2,{8}4,45,A6/D6f/E6,{4}7-3[8:1]/A1f/D1/E1,
{4}2-6[8:1]/7bx,2bx/5-8[8:1],4-1[8:1]/5bx,4bx/7^4[8:1],
{4}3-7[8:1]/7bx,3bx/5-2[8:1]*-8[8:1],5bx,3b/7b,
{4}2^5[8:1]/8^5[8:1],2b/8b,{8}46,46,35,35,
{16}1b,4b,2b,5b,3b,6b,4b,7bh[8:1],,5x,,3,{8}4>5[4:3],25,

{1}4b,
{4}5/6-1[8:1],4,3-8[8:1]/4,5,
{4}7-4[8:1]/8,1,1/2-5[8:1],8pp4[2:1],
{2}4b,{8}3,3,{4}2pp4[8:1]/6qq4[8:1],
{4}26,5qq3[8:1]*pp7[8:1],5,4-8[8:1],
{4}4x-2[8:1]*-6[8:1],4,{8}1x/7x,8b,{4}2bqq8[8:1]/6bpp8[8:1],
{4}26,4qq2[8:1]*pp6[8:1],4,8^5[8:1],
{8}1^4[8:1],1,7-5[8:1],7,3,3,{4}24,

{4}2h[8:1]/4h[8:1],5h[8:1]/7h[8:1],1h[8:1]/3h[8:1],6h[8:1]/8h[8:1],
{8}57,6,24,3,68,7,13,2,
{16}4,3,2,1,8,7,6,5,{32}6,7,8,1,2,3,4,5,{4}6b,
{16}2,4,3,5,,46,,3b/7b,,7,5,7,5,6,4,5,
{16}3,24,,7,68,,2,13,,6,57,,4-8[8:1],3,2,1,
{1}8b,
E

Re:MASTER


名前:
コメント:

タグ:

+ タグ編集
  • タグ:
最終更新:2026年06月16日 22:09