| アーティスト |
DÉ DÉ MOUSE & KAJI |
BASIC
ADVANCED
EXPERT
MASTER
(180)
{4}2h[4:1],4h[4:1],5h[4:1],6,{16}7,8,7,,1x/6x,,1x/6x,,E2,E7,E4,E5,{4}Ch[8:1],
D3/A3f/D4/B3/B6/D6/A6f/D7,{8},12,1/2-5[8:1],,8bx,,78,7bx/8bx,,56,{4}5/6-3[8:1],,
1bx/2bx,3bx/4bx,{16}2,1,2,1,{8}2bx-4[8:1],,8,8bx-6[8:1],,5,5h[4:1],,6,6,
{4}5bx/7bx,6^3[8:1],2,1bx/2bx,{8}34,3bx/4bx,,{16}2,1,2h[4:1],,,,E3,E4,E5,,
{8}1bx,1bx,1bx/2bx-4[8:1],,8-6[8:1],,5bx,5,,7bx/8bx,{4}7/8>6[2:1],B7hf[2:1],,
,{8},78,16,2h[4:1]/5,,4h[4:1],,3,4,5,4/6h[4:1],,B7/B8/E8,,
2,2,13,48,A6/D7/E7,A1/D2/E2,A5/D5/E5,C,8,8,2^5[8:1],2,B6/B7,,8b,,
2h[4:1],1,8,7,6h[4:1],8,1,2-5[8:1],,1,{4}1-6[8:1],5-2[8:1]*-8[8:1],,
{8}3b/7b,6,35,4,56,7,81,12,3,4,{4}3q4^6[2:1]b/5,Cf,,
8bhx[2:1],,5-3[8:1],{8}6,6-2[8:1],,1,1,,2,1x/2x,{4}1x-5[8:1]/2x,
3-8[8:1],6,7,{8}12,1h[4:1]/2,,3,3,3,{4}4-1[8:1]*-6[8:1],A4/D4/D5,
7bx/8bhx[2:1],,6-1[8:1],{8}1,2-5[8:1],,8,{4}8,5-8-3[8:3]/6,7^4[8:1],
7x,{8}1,1,,3^6[8:1],,1,,78,78,,{16}2h[16:3]/5,,,4x,3x,,3x,4x,
{8}2bx,,38,{4}3/8-2[8:1],4,3h[4:1],1h[4:1],{8}2b,2b,4bqq8[4:3]b,6b,8b/A4f,
{2},{8},7,6,5h[8:5],,8,8,,1,1,{4}2^7[4:1],7^4[4:1],,{8},8,7>5[2:1],6,{2},
{8},1,2qq7<3[1:1],3,{2}4h[1:1],,,{16}A1,A7,E3,E6,{8}A4/B4f,1x/8x,
2b/7b-2[8:1]b,,3-8[8:1],4,5-1[8:1],6,2V46[4:1],3,
8,8,8,7-5[8:1],8-4[8:1],7>5[4:1],8,7,,8,1,2,34,45,56,47,38,
{16}2,1x,{8}2,45,7-3[8:1]/8-4[8:1],16,{4}78,
1h[8:1]/6h[8:1],3h[8:1]/8h[8:1],{8}26,3-8[8:1]/5,26,3b/5,
,5/6-1[8:1],47,5bh[4:1]/6b,,8b,8b,4b/6b,
2bh[4:1]/8b,,1,3^8[8:1]/8x,,6,6,6,78,78,12,12,{32}8,7,6,5,4,3,2,1,{4}8bx-3[8:1]b/3bx,
A8f/4-1[8:1]b,{8}6-1[8:1]b,7,3-8[8:1]b,2,4^7[8:1]b,5,
1hx[16:1],1hx[16:1],1x,28,57,46,3/5^2[8:1],46,{4}5^8[8:1]/7,3/5w1[8:1],5,37,
{8}1x/2,1x/2,34,56,7^4[8:1]b/8p3[8:1]b,1,,,
{4}1-5[8:1]/2-4[8:1],1-7[8:1]/2-6[8:1],1w5[8:1]/2,D1/A1f/D2,
8-4[8:1]/7-5[8:1],8-2[8:1]/7-3[8:1],8w4[8:1]/7,D1/A8f/D8,
{8}26,26,37,37,48,37,26,15,{2}8/4h[2:1],{16}8-4[8:1]b,1,2,3,{4}4/8bx,
{16}2b/6b,,3,4,3,,3,4,3,,3,4,3,,3,4,3,,2,1,2,,2,1,2,,2,1,2,,2,1,
2,,7,8,7,,7,8,7,,7,8,7,,7,8,7,,6,5,6,,6,4,{8}5w1[8:1]b,46,,,
{16}7bx/3bx,,6,5,6,,6,5,6,,6,5,6,,4,5,3,,3,4,3,,3,4,3,,3,4,3,,3,4,
2,,2,1,2,,2,1,2,,2,1,2,,8,1,8,,7,8,7-2[8:1]b,,5,,{2}3,
{16}2b/8b,,2,4,3,,3,4,3,,3,4,2,,8,1,7,,7,5,6,,6,5,6,,6,5,7,,1,8,
2,,2,4,3,,3,4,3,,3,4,2,,2,1,2,,7,8,7,,1,8,1b,,1x/2x,3x/8x,4x/7x,,4x/7x,,
56,,3,4,2,,2,4,3,,6,5,7,,7,5,6,,2,1,3,,3,1,2,,7,8,6,,6,8,
7,,2,4,3,,7,5,6,,2,1,{8}3,48,37,37,46,46,35,35,2/6-1[8:1],17,
{1}2bh[4:7]/6b,{4},,,8-4[8:1],
8x/Cf,{8}1,1,24,24,35,3/5h[4:1],,6,4,3,{2}2-5[8:1]/6-1[8:1],
{8}4,3,27,27,27,1b/8h[16:1],1b/8h[16:1],1b/8h[16:1],
1b/7h[16:1],1b/6h[16:1],1b/5h[16:1],1b/4h[16:1],
1b/3h[16:1],1b/2h[16:1],1b/8h[16:1],1b/8h[16:1],
A2,A3,A4,A5h[4:1]/D6h[4:1]/A6h[4:1],,8,8,17,2-5[8:1],2,6p4[2:1],6,{2}Cf,
{8}1bhx[2:1],,,4,4V61[8:3],,1,1>6[8:3],,E3,E4,,{2}7-4[8:1],
{16}3b/5b,,,,2bx,4,2,4,3,5,3,5,4bx,6,4,6,3,5,3bx,5,2bx,4,2,4,1bx,3,1,3,8-4[8:1],2,8,2,
8b,,,,3x/5x,,3,4,{8}2h[4:1],,1,48,,78,{4}1/5s1[8:3],,,
2bhx[4:1]/8bx,{16}8,7,6,5,1,2,3,4,8,,8,,1,7,1,7,2,6,2,6,{8}3b,5b,7bz3[8:3],2b,
{2}4b,{8},34,2,1h[4:1],,8-3V51[2:1]b,,2bx,2bx,,3bx,,
4,4,13,2h[4:1]/8,,8,17,68,15,24,35,46,57,57,4b/8b,,
{2}2<4[2:1]/6h[4:1],4>6[2:1],6>8[2:1],7,
{8}8,8,6,6,4,4,2-6[8:1],2,{2}8h[2:1],{16}1-5-7[4:1],2,3,4,{4}51,
A8f/B8/E1,,,1/7p3^6v1[1:1],{1},{4}3hbx[4:3],,,2p6^1p4[1:1],{1},
{2}2hbx[2:1],4hbx[2:1],6hbx[2:1],8hbx[2:1],
{4}1,68,46,24,{8}15,15,24,24,{4}3^8[8:1]b/5v8[8:1]b,A3/D4/A4f/D5/A5,
{8}1hb[16:1]/7hb[16:1],1h[16:1]/7h[16:1],5h[16:1]/6h[16:1],3h[16:1]/4h[16:1],
1h[16:1]/2h[16:1],7h[16:1]/8h[16:1],1h[16:1]/6h[16:1],2h[16:1]/5h[16:1],
{16}3,4,3,4,{8}2-6[8:1]b,1,2b/8-4[8:1]b,7,8b/1-6[8:1],2,
1/3-8[8:1],4,3/5-2[8:1],6,5/7-4[8:1],8,7/1^6[8:1],2,
13,{16}4,4,{8}5w1[8:1]b,46,5b,,{16}3bx/7bx-3[8:1]b,4bx/6bx,5bx,,
{8}7/1-6[8:1],,1/4-8[8:1],5,4/3-1[8:1],2,3/7b-4[8:1],6,
7/3-8[8:1],2,3/5-1[8:1],6b,5/2^5[8:1],3,2b/8b,,
7,7,12,34,57,18,3/4^1[8:1],5,{2}4bx/6bhx[2:1],{32}1,2,3,4,5,6,7,8,{4}1b-3[8:1],
1^7[8:1]/4h[8:1],1^3[8:1]/4h[8:1],1-7[8:1]/4h[8:1],1-4[8:1]/4h[8:1],
1-6[8:1]/5h[8:1],1^4[8:1]/5h[8:1],1^6[8:1]/5h[8:1],1-3[8:1]/5h[8:1],
1-7[8:1]/4h[8:1],1^3[8:1]/6h[8:1],1^7[8:1]/4h[8:1],1^3[8:1]/6h[8:1],
1-7[8:1]/4h[8:1],1-5[8:1]/6h[8:1],{8}1,7x,8x^5[8:1],4bx,
{4}8-3[8:1]/2h[8:1],8-6[8:1]/4h[8:1],8-4[8:1]/2h[8:1],8b/1b-6[8:1],
1^3[8:1]/5h[8:1],1^7[8:1]/4h[8:1],1/6h[8:1],{8}25,25,
{16}3-8[8:1]b,4,,4,3,,6,,7-4[8:1]b,1,,1,{8}7,2,35,35,2-7[8:1]b/4,18,{2}6bx,
{16}1b/7b,,2,4,3h[8:1],,7,5,6h[8:1],,2,4,3h[8:1],,8,5,
6h[8:1],,1,4,3h[8:1],,8,5,6h[8:1],,1,4,3h[8:1],,8,,
4hbx[8:1]/7hbx[8:1],,,56,{8}56,47,38,12,
{16}3/8^5[8:1]b,,,4x,{4}8^3[8:1]b/4x,6x/8x,{8}57,57,1b/8b,24,
{16}3-8[8:1]/5,,6,6,3-5[8:1],,7,7,3,,6,6,8x,,17,,
6-4[8:1],,2,2,6-1[8:1],,3,3,6,,2,2,8,,38,,
2,1,,1,4,1,,1,6,1,,1,4,1,,1,2,1,,12,38,47,,87,61,52,,1/8w4[16:1]b,27,{1}36,,,,E
Re:MASTER
- MASTER譜面を追加しました。修正等ありましたらよろしくお願いします。 -- けもがみ (2026-04-05 04:14:53)
最終更新:2026年04月05日 21:56