EASY
BASIC
ADVANCED
EXPERT
MASTER
(190)
{1},
{4}3h[1:1]/6,{8}4,4,,5,{4}5,
{4}6h[1:1],{8}5,5,,4,{4}4,
{4}3h[1:1],{8}4,4,,5,{4}5,
{4}6h[1:1],{8}5,5,,4,{4}4,
{4}2>8[4:5],{8}5,5h[8:9],{2},
{1},
{1}1s5[2:1]/2h[4:3],
{1}2z6[2:1]/5h[4:3],
{4}4/7h[1:1],{8}5,5,,6,{4}6,
{4}4h[1:1],{8}6,6,,5,{4}5,
{4}6h[1:1],{8}4,4,,5,{4}5,
{4}3h[1:1],{8}5,5,,4,{4}4,
{4}6<3[1:1],{8}5,5,{2},
{2},4h[2:1],
{4}5p4[2:1],,,1-5[8:1],
{1}8h[1:1],
{4}1b^6[8:1],1-5[8:1]/3,15,8^3[8:1],
{4}6/8-4[8:1],48,3,{8}34,2^5[8:1]/5,
{8},7,{4}7h[4:1],8,1/2-5[8:1]*-6[8:1],
{4},7-3[8:1]*-4[8:1]/8,,{8}25,25,
{4},8^3[8:1]*^5[8:1],8,8pp4[2:1]*qq4[2:1],
{2}8b,{4},{8}26,48,
{4},2/7-3[8:1],2-6[8:1]/7,27,
{4}27,{8}18,2b/7b,,6,5,47,
{4},2-6[8:1]/7,2/8-4[8:1],2-6[8:1]/8,
{4}1-5[8:1]/2,1/2^5[8:1],26,{8}78,16,
{4},2/7-3[8:1],1-5[8:1]/7,1/7-3[8:1],
{4}7/8-4[8:1],7^4[8:1]/8,37,{8}12,3b/8b,
{4},1^4[8:1]*^6[8:1],1,1pp5[2:1]*qq5[2:1],
{2}1b,{4},36,
{4}8-4[8:1],8^3[8:1]*^5[8:1],8w4[8:1],8,
{2}1b/7b,{4},2/7<2[4:1],
{8}1,,,18,,3,{4}25,
{8}7-3[8:1],7,{4}2<4[4:1],4,{8}8,1,
{4}24,{8}8,5-1[8:1]/7,,8h[4:1],,1,
{4}2-6[8:1],7>5[4:1],5,1,
{4}27,{8}4,5^2[8:1]/6,,8,{4}8-4[8:1],
{4}1<5[4:1],5>1[4:1],1,8,
{4}7/8^3[8:1],{8}6,5-1[8:1],,2,,2,
{8}8,18,{4}36,45,2>7[4:1]/7,
{8}1,,,18,,6,{4}47,
{8}3-7[8:1],3,{4}6>8[4:1],8,{8}4,5,
{4}68,{8}4,1-5[8:1]/3,,4h[4:1],,5,
{4}6-2[8:1],3<1[4:1],1,5,
{4}36,{8}1,7/8^3[8:1],,5,{4}5-1[8:1],
{4}4<8[4:1],8>4[4:1],4,5,
{4}7-3[8:1],5-1[8:1],{8}8,8,1,36,
{8},1b/8b,{4}1b/8b,{16}1,5,2,6,3,7,4,8,
{4}5^2[8:1],{8}8,8-5[8:1],,3-8[8:1]/8,,34,
{8},17,26,35,,28,37,4,
{4}5^8[8:1],{8}2,2-6[8:1],,2/8-4[8:1],,1h[4:1]/8,
{8},5,{4}5-2[8:1]*-8[8:1],,3b/7b,
{8}2^5[8:1],7,2,7,3^6[8:1],8,3,8,
{4}4-8[8:1],4^7[8:1],4^1[8:1],4,
{4}1b/6b,{8}56,3b/8b,,34,{4}1bw5[8:1]/6b,
{4},3b/7b,{16}8,4,7,3,6,2,5,1,
{4}4^7[8:1],{8}1,1-4[8:1],,1/6-1[8:1],,56,
{8},28,37,46,,17,26,5,
{4}4^1[8:1],{8}7,7-3[8:1],,1-5[8:1]/7,,1/8h[4:1],
{8},4,{4}4w8[8:1],,2b/6b,
{8}7-3[8:1],1,7,1,2-6[8:1],8,2,8,
{4}7^4[4:1],4-8[4:1],8^3[4:1],4,
{4}5>1[4:1],7,4<8[4:1],2,
{8}1,{24}1,2,3,{8}46,2b/7b,,18,{4}36,
{4}27,3^8[4:1],7,6^3[4:1],
{4}8,1^6[4:1],5,4q8[4:1],
{4}3,4p8[4:1],5,4<8[4:1],
{4}3,4,26,1^4[4:1]/8,
{4}7,6^1[4:1],2,3^6[4:1],
{4}1,8^3[4:1],4,5p1[4:1],
{4}6,5q1[4:1],4,5>1[4:1],
{4}6,5,37,1-4[8:1]*-6[8:1]/8,
{4}1b,1/8-3[8:1]*-5[8:1],8b,4w8[8:1]/5,
{4}4b,4/5w1[8:1],5b,4p5[4:3]/5<4[4:3],
{1}4b/5b,
{4}1/5^8[8:1],5b^2[8:1],5b-1[8:1],5bpp1[4:3]*qq1[4:3],
{1},
{4}1/6p8[4:1],3,2p4[4:1],8,
{8}7,1/5h[4:1],,2,13,4h[4:1]/8,,5,
{4}5^8[8:1],5^2[8:1],5-1[8:1],5<4[8:11],
{1},
{2},{8},4>5[2:3],,8h[2:3],
{1},
{2},{8},2h[8:9]/7h[8:17],,,
{1},
{1},
E
Re:MASTER
最終更新:2026年10月04日 09:34