アットウィキロゴ

ネガティブ進化論

アーティスト DECO*27

BPM BASIC ADVANCED EXPERT MASTER Re:MASTER
140 3 6 8+ 12+ -

EXPERT MASTER Re:MASTER
譜面制作者 隅田川星人 Jack -

BASIC


ADVANCED


EXPERT


MASTER

(140)
{4}C,
{16}3h[16:3],,,4h[16:3],,,{8}5,,6/4,5,6,
{16}7h[16:3],,,6h[16:3],,,{8}5,,5/3,4,3,
{16}2h[16:3],,,3h[16:3],,,4,,7h[16:3],,,6h[16:3],,,5,,2h[16:3],,,3h[16:3],,,
{8}4h[8:5],,E2,E8,E4,E6,4,5,6,7,8,1,2,3/5,4,4/6,5,5/3,2,1/8,7,7h[8:1],
{16}5,7,,,2,,2h[8:1],,4,2,,,7,,
{4}7<4[8:1],2q6[8:1],8-4[8:1],3>6[4:3],5h[8:1],5h[8:1],5h[8:1],
{8}5,5,6/4,4,5/3,5,
{4}6/4-2[8:1],5,3h[8:1]/5h[8:1],4h[8:1]/6h[8:1],5h[8:1]/3h[8:1],
{8}6/4,6/4,3,4,5,6,7,8x/1x,7x/2x,,
{16}7h[16:3],,,6h[16:3],,,{8}5,6/4,4,5/3,5,
{16}2h[16:3],,,3h[16:3],,,{8}4,3/5,5,6/4,4,
{16}5/7h[16:3],,,6h[16:3],,,5,,4/2h[16:3],,,3h[16:3],,,4,,5/7h[16:3],,,6h[16:3],,,
{8}5h[8:5],,E8,E2,E6,E4,5,6,7,8,1,2,3,4-2[8:1],4,5-7[8:1],5,4-1[8:1],4,5,6,7h[8:1],
{16}8,7,,,3/5,,2h[8:1],,1,2,,,
{8}6/4,7-3[8:1],7,8,8,
{4}1>4[8:1]/5<8[8:1],,6/2-6[8:1],2/1,
{16}7/4,,,2/5,,,{8}8/4h[8:7],1,1,7,7,
{4}2-7[8:1],2x,6/1b-4[8:1],
{8}1x/8x,7,7/5,4,4/2,1,1/8,7-4[8:1],3-8[8:1],7x,3x,5,
{8}6/1,7/2,3/8-5[8:1],,8x/1x,2,2/4,5,5/7,8,8/1,2-6[8:1],5<8[8:1],2x,5x,,
{8}1/2,8/3,4/7h[4:1],,8,1/6,5/2>5[8:1],1,8,7,6/5,1,3/4,8,6/5,1,
{8}3/4,8x,8x/1x-5[8:1],,6,7,1/8qq3[2:1],,4,4h[8:7],,,,,
{4}2-7[8:1],2x,6/1b-4[8:1],
{8}1x/8x,7,8/6,3,2/4,6,7/5,7-3[8:1],4>1[8:1],7x,4x,5,
{8}6/4,7/3,2/8-5[8:1],,8x/1x,2,1/3,6,7/5,3,2/4,7V51[4:1],2-4[8:1],7x,2x,,
{8}8/7,6/1,5/2h[4:1],,1,8/3,4/7<4[8:1],8,1,2,4/3,8,6/5,1,3/4,8,
{8}6x/5x,4x/3x,2x/1x,
{16}7,8,{8}7x,1/6h[8:1],5x,4/2h[8:1],3x,1x/8xh[4:1],,
{16}4,4,8,,5,5,1w5[16:1],,,,{32},Cf,,,
{8},7/3h[2:1],6,5,4,5h[8:3],4,3,2h[8:3],1,8,7h[4:1],6,5,6/4,5/3,4/2,
{8}1h[8:3],B2,E4,8h[8:3],B7,E6,3h[8:3],E3,B4,6h[8:3],E7,B5,
{8}4h[2:1],E3,C,E7,8-4[8:1],,8/1,,4/7,5/2,,4/5,5/4,
{16}3,4,2,,6,5,7,,1,8,{8}1x,7x/2x,
{8}B5/E6,E4/B3,B6/E7,E3/B2,B7/E8,E2/B1,E1/B8,B4/B5/Ch[8:5],,,,,
{8}8w4[16:1],,{32},Cf,,,
{8},2b/6b,,,3h[8:5],,,,,4h[8:3],,,5h[8:3],,,6,,
{8}5h[4:1]/7h[4:1],,,6h[4:1]/4h[4:1],,,5h[4:1]/3h[4:1],,,4h[4:1]/2h[4:1],,,
{4}3/5-8[8:1],4,
{16}7h[16:3],,,6h[16:3],,,5,,7/4,,3,4,3x,,2x/5x,,,,
{16}8,1,{8}8,1xh[8:1]/2xh[8:1],,8xh[8:1]/7xh[8:1],
{16},,3,4,2,,6,5,7,,3,4,1,,6,5,8,,1/8,,
{32}3x,4x,,,6x,5x,,,2x,3x,,,7x,6x,,,
{4}1x-5[8:1]/8x-4[8:1],Cf,7b/2b<7[8:1],
{8}2x/4x,6,5/7,3,4/2,7,8/6,2-5[8:1],6-1[8:1],2x,6x,4,
{8}5/4,6/3,2/7>2[8:1],,7x/5x,3,4/2,5/7,
{8}1-5[8:1],8-4[8:1],1x>4[8:1],8x<5[8:1],1x-5[8:1],8x,1b,,
{8}8/7,8/1,1/2-6[8:1],,7>2[8:1],7,3<6[8:1],3,8,8,7/2,
{16}3,4,2,,6,5,7,,2,1,{8}2x,3x/4x,5x/6x,
{16}7,8,{8}7x,1/6h[8:1],5x,4/2h[8:1],3x,1x/8xh[4:1],
{16},,4,4,8,,4,4h[16:5],{8}2-7[8:1],,2b,,5x/4x,
{16}2,1,{8}2x,8/3h[8:1],4x,5/7h[8:1],6x,8x/1xh[4:1],,4,2-7[8:1]/6-3[8:1],7/3,
{4}2x/6x,5x/4x,5h[8:1]/3h[8:1],4h[8:1]/6h[8:1],5h[8:1]/3h[8:1],
{8}4/2,2/4,3/5,4,7/5,6,
{4}7/1-5[8:1],1x/8x,4h[8:1]/6h[8:1],5h[8:1]/3h[8:1],4h[8:1]/6h[8:1],
{8}5/7,7/5,6/4,5,2/4,3,2,8x/1x,2x/7x,,5h[4:1]/3h[4:1],,,4h[8:3]/6h[8:3],,,,
{16}3,4,3h[4:1],,
{8},,2h[4:1]/4h[4:1],,,3/5,,4h[4:1]/6h[4:1],,,5h[8:3]/3h[8:3],,,,
{16}6,5,6h[4:1],,{8},,7/5,6-4[8:1],,3,
E

Re:MASTER


名前:
コメント:

タグ:

+ タグ編集
  • タグ:
最終更新:2026年04月04日 22:46