アットウィキロゴ

ロウワー

アーティスト ぬゆり

BPM BASIC ADVANCED EXPERT MASTER Re:MASTER
132 2 6 8+ 11 13

EXPERT MASTER Re:MASTER
譜面制作者 翠楼屋 緑風 犬三郎 はっぴー

BASIC


ADVANCED


EXPERT


MASTER

(132){8}5,6h[8:15],,5,,5,,5,,4,,4,,4,,4,4,3h[8:15],,4,,4,,4,,5,,5,,5,,5,5,6h[8:15],,5,,5,,5,,4,,4,,4,,4,4,3h[8:7],,4,,4,,4,{1}4q5[8:3],{8}1/8,7,5h[8:1]/6h[8:1],,4,4,5,5,2h[4:1],1,8h[4:1],1,2h[4:1],1,8,,8/1,2,4h[8:1]/3h[8:1],,5,5,4,4,7h[4:1],8,1h[4:1],8,7h[4:1],8,1,,
1/8,7,4h[8:1]/6h[8:1],,3,3,5,5,3h[4:1],1,7h[4:1],1,3h[4:1],1,7,,8/1,2,5h[8:1]/3h[8:1],,6,6,4,4,{4}3x/5x,5x/7x,1x/2x,7x/8x,

{8}6h[4:1],5,4h[4:1],5,7h[4:1],5,4h[4:1],5,6h[4:1],5,3h[4:1],5,7h[4:1],5,4h[4:1],5,6h[4:1],5,4h[4:1],5,7h[4:1],5,4h[4:1],6,8-4[8:1],,2-6[8:1],,7,7,5,,3h[4:1],4,5h[4:1],4,2h[4:1],4,5h[4:1],4,3h[4:1],4,6h[4:1],4,2h[4:1],4,5h[4:1],4,3h[4:1],4,5h[4:1],4,2h[4:1],4,5h[4:1],3,1,1,6,6,4,4,
3/7h[4:3],,E7,E6,E5,E4,3h[2:1],E2,E1,E8,6h[2:1],E6,E5,E4,2h[2:1],E1,E8,E7,5h[2:1],E4,E3,E2,1h[2:1],E6,E7,E8,8<5[8:1],,3>8[8:1],,6>3[8:1],,
2h[4:3],,E3,E4,E5,E6,6h[2:1],E8,E1,E2,3h[2:1],E4,E5,E6,7h[2:1],E1,E2,E3,4h[2:1],E6,E7,E8,8h[2:1],E4,E3,E2,1h[4:3],,4,4,5,5,6,,

{4}7-4[8:1],3-8[8:1],{8}6,6,4,4,8,8,3,3,2/4,,1v6[8:1]/2>5[8:1],1/2,,,8v3[8:1]/7<4[8:1],8/7,,,1v6[8:1]/2>5[8:1],1/2,,,7/8,,5/6,5/6,4/7,,{4}2-5[8:1],6-1[8:1],{8}3,3,5,5,1,1,6,6,7/5,,6,6h[8:1],8,8h[8:1],1,1h[8:1],3,3,4>1[4:1]/5<8[4:1],4/5,,,,,1b/8b,,2-5[8:1]/7,,

{8}8<3[4:1],8,2,2h[4:1],,4x,2x/4x-8[8:1],,1>6[4:1],1,8,8h[4:1],,5,5,,7>2[8:1],7,3<6[8:1],3,7>2[8:1],7,3qq5[2:1],3,6,,,,7,,8-4[8:1],8,1>6[4:1],1,7,7h[4:1],,5x,7x/5x-1[8:1],,8,8,1x/7x,2x/6x,,1-5[8:1]/2-4[8:1],,1x/2x,,6,6,5,7,8-4[8:1]/7-5[8:1],,8x/7x,,3,3<6[8:1],,7h[4:1],,5,,

{8}6,6,1pp1[4:1],1,5,,6,,7,7,5,4,3<6[8:1],3,7,,8,8,1,2,3-8[8:1]b/6-1[8:1]b,3/6,,,7,5,4,2,7,5,4,2,1>4[8:1]*<6[8:1],1,,,8<5[8:1]*>3[8:1],8,,,1>4[8:1]/5<8[8:1],1/5,,,4>1[8:1]/8<5[8:1],4/8,,,1-4[8:1]*-5[8:1]/5,,,,3/6,,2/7,2/7h[4:1],,5,4,3,2/8-4[8:1],,3,,{4}2h[1:2],,,,,5,,5,7h[1:2],5,,5,,4,,4,3h[1:1],E4,,E5,6h[1:1],E6,,E5,3h[4:3],E4,,E5,{12}4/6,4/6,4h[12:7]/6h[12:4],{4},,,{12}5b/3b,5b/3b,5bh[12:4]/3bh[12:4],{4},,8-4[8:1],

{8}2>5[8:1],2,7>2[8:1],7,4,4,8,8,7<4[8:1],7,2<7[8:1],2,5,5,1,1,2/8,3/7,4/6,7/1,6/2,5/3,2<7[4:1]/6>3[4:1],2/6,,,,,8,8,1-5[8:1],1,7<4[8:1],7,2<7[8:1],2,5,5,1,1,2bx-6[8:1]b,8bx-4[8:1]b,,,,1-5[8:1]/2-4[8:1],,1/2,,6,6,5,7,8-4[8:1]/7-5[8:1],,8/7,,3,3,4,2,1-6[8:1]/2-5[8:1],,1bx/2bx,,7,7,5,6,8-3[8:1]/7-4[8:1],,8bx/7bx,,1,8<5[8:1],8,4>1[8:1],4,5-8[8:1]b,5,1b-5[8:1],,1bx/8bx,E

Re:MASTER

(132){8}5h[8:1],3,5h[8:1],4,5h[8:1],E5,5h[8:1],6,5h[8:1],6,5h[8:1],E5,5h[8:1],4,5h[8:1],4,4h[8:1],6,4h[8:1],5,4h[8:1],E5,4h[8:1],3,4h[8:1],
3,4h[8:1],E5,4h[8:1],5,4h[8:1],5,5h[8:1],E5,6h[8:1],4,5h[8:1],E5,4h[8:1],6,5h[8:1],E5,6h[8:1],4,5h[8:1],E5,5h[8:1],4,4h[8:1],E5,
3h[8:1],5,4h[8:1],E5,5h[8:1],3,4h[8:1],E5,5s1[8:3],5,4,,,,

{24}2-5[8:1],,,3/5,,,2/6,,,7,,7,5,,5,4,,4,2,,2,8,,,{8}1-6[8:1],4,1-4[8:1],5,1-5[8:1],6,1,6,{24}7-4[8:1],,,6/4,,,7/3,,,2,,2,4,,4,5,,5,7,,7,1,,,{8}8-3[8:1],5,8v6[8:1],4,8-4[8:1],3,8,3,{24}2-5[8:1],,,3/5,,,2/6,,,7,,7,5,,5,4,,4,2,,2,8,,,{8}1-6[8:1],4,1-4[8:1],5,1-5[8:1],6,1,6,{24}7-4[8:1],,,6/4,,,7/3,,,2,,2,4,,4,3,,,{4}4>1[8:1]/5,4<7[8:1]/6x,4-8[8:1]/2x,4-1[8:1]*-7[8:1]/6x,4x,

{8}7h[4:1],5,4h[4:1],5,{24}6,,6,5,,5,4,,4,5,,5,{8}7h[4:1],5,3h[4:1],5,{24}6,,6,5,,5,4,,4,5,,5,{8}7h[4:1],5,4h[4:1],5,{24}6,,6,5,,5,4,,4,5,,5,{8}7h[4:1],5,3h[4:1],5,6h[8:1],5,4/7,,{8}2h[4:1],4,5h[4:1],4,{24}3,,3,4,,4,5,,5,4,,4,{8}2h[4:1],4,6h[4:1],4,{24}3,,3,4,,4,5,,5,4,,4,{8}2h[4:1],4,5h[4:1],4,{24}3,,3,4,,4,5,,5,6,,,{8}6h[8:1]/5,5,3h[8:1]/4,4,2h[8:1]/1,1,7h[8:1]/8,8,

{8}1>5[4:1],1,5,6,{24}7,,7,8,,8,1,,1,2,,,{8}3<7[4:1],3,7,8,{24}1,,1,2,,2,3,,3,4,,,{8}5<1[4:1],5,1,2,{24}3,,3,4,,4,5,,5,6,,,{8}7/8,3/4,1/2,5/6,1/8,4/5,3/6,,8<4[4:1],8,4,3,{24}2,,2,1,,1,8,,8,7,,,{8}6>2[4:1],6,2,1,{24}8,,8,7,,7,6,,6,5,,,{8}4>8[4:1],4,8,7,{24}6,,6,5,,5,4,,4,3,,,{4}2h[8:1]/4h[8:1],7h[8:1]/5h[8:1],{8}3/5,3/5,2/6,,

{8}7h[8:1]/4,4,2h[8:1]/5,5,6h[8:1]/4,4,3>7V13[2:1]/5,5,4,4,5,5,4,4,3h[8:1]/5,6,4/8-5[8:1],5,4,3,4-1[8:1],5,6p4[8:3],5,,,,1,1,2/8,3/7,,2h[8:1]/5,5,7h[8:1]/4,4,3h[8:1]/5,5,4/6-2-8[8:3],4,5,5,4,4,5,5,4/6,4,2/5,4,5/7,{24}4,,4,6,,6,{8}3,1>4[4:1]/8<5[4:1],4/5,{4},,4/5,2b-4[8:1]/7b,

{8}6V84[4:1],5,1,1,2,{24}3,,3,{8}4-7[8:1],2,1-5-3[4:1],2,6,6,7,8,1-4[8:1],1-6[8:1],1-5[8:1],,,{24}6,,6,{8}4,3/5,2-7-1[4:1]/6-3-5[4:1],1/7,,,,,{24}8,,8,{8}1,7-5[8:1],4,3V15[4:1],4,8,8,7,{24}6,,6,{8}5-2[8:1],7,8-4-7[4:1],7,1,1,,1-5[8:1]/2-6[8:1],3/4,1x/2x,,7,4/6,2,1,8-4[8:1]/7-3[8:1],6/5,8x/7x,,2,1p4[8:1]/8q5[8:1]b,2/7,,,1pp1[4:1]/7,,

{8}4h[2:1],,,,5-8[8:1],6,7p2[4:1],,5h[2:1],,,,4-8[8:1]b,3,2pp2[4:1],,4h[2:1],,,,5,6,1bh[4:3]/7,,A8/D8,E2/A2,E7/B7,B3/A3,A5/E5,,6pp4[4:1],,5h[2:1],,,,4q8[8:1],3,2pp1[4:1],,4h[2:1],,,,
5qq1[4:1],6,7,,8,,4>1[8:1]/5<8[8:1],4/5,,,2/7,2b/7b,,6,4,2,1>5[8:1],5>1[8:1],6h[4:17],,{1},{4},,,4-2[8:1],,5-7[8:1],,4-2[8:1],,,4,3h[1:3],,E5/B5,,E5/B4,,E5/B5,,E5/B4,,E5/B5,,E5,{12}4>1[8:1]/6<1[8:1],4/6,4/6,{4},1-4[8:1]*-6[8:1],1x,{12}5<8[8:1]/3>8[8:1],5/3,5/3,{4},8x,{8}3b<5[8:1]/7b,2,

{8}3/8p4[8:1],7,2-8[8:1]/8,3,2/5<8[8:1],4,3-6[8:1]/5,2,7-1[8:1]/3,8,4>1[8:1]/7,5,4/6-3[8:1],5,1>4[8:1]b/6,1<6[8:1]b,1-5[8:1]b,,,7,8-5[8:1],7,2>7v1[8:3]/8,1,Cf/2,,,,{24}8,,8,{8}1,6>4[8:1],7,1q5[8:1]/6,2,7-1[8:1]/1,6,4>1[8:1]/7,5,4/6-3[8:1],7,2-5[8:1]b/6,1-6[8:1]b,2b,1b,,2<6[8:1]/8-4[8:1],4/5,2b/8b,,3,3,4,5,7>3[8:1]/1-5[8:1],5/4,7b/1b,,6,6,5,4,3<7[8:1]/5-1[8:1],8/1,3b/5b,,1,1,8,7,6>2[8:1]/4-8[8:1],8/1,6b/4b,,8,8-4[8:1],1-5[8:1],8-6[8:1],1-3[8:1],8-4[8:1],1,8w4[8:1]b,,8b,
E
  • Re:MASTER譜面を追加しました。修正等ありましたらよろしくお願いします。 -- Sugar (2026-06-14 20:07:08)
  • MASTER譜面を追加しました。修正等ありましたらよろしくお願いします。 -- Sugar (2026-06-27 15:15:24)
名前:
コメント:

タグ:

+ タグ編集
  • タグ:
最終更新:2026年06月27日 15:15