BASIC
ADVANCED
EXPERT
MASTER
(153){1}Ch[4:3],{8}7h[1:2],,5,,,5,5,,,,5,,,5,5,,2h[1:2],,4,,,4,4,,,,4,,,4,4,,7,,4/6,,2,,3/5,,7,,5/6,,2,,3/4,,5,5,4,4,{16}5x,4x,6x,3x,7x,2x,8x,1x,{4}8hx[2:1],,1b,Cf/B2/B3/B6/B7,2h[8:1]/8h[8:1],5h[8:1]/6h[8:1],{16}1/8,,3,4,2,,8,,{4}1h[8:1]/7h[8:1],4h[8:1]/6h[8:1],8>3[8:1]/7q3[8:1],,4h[8:1]/5h[8:1],8h[8:1]/2h[8:1],{16}5/6,,7,8,6<3[4:1],,1,,{4}1h[4:1],,4/5,{8}E7/B7,E3/B3,{16}8,1,8,,4h[8:1]/3h[8:1],,,,1/8,,6,5,7,,1,,{4}2h[8:1]/8h[8:1],5h[8:1]/3h[8:1],1<6[8:1]/2p6[8:1],,5h[8:1]/4h[8:1],1h[8:1]/7h[8:1],{16}4/3,,2,1,3<2[8:3],,8,,{4}8h[2:1],,,C,
{16}6h[16:3],,,5h[16:3],,,4,,4,,,,3/4,,,,3h[16:3],,,4h[16:3],,,5,,5,,,,4/5,,,,6h[16:3],,,5h[16:3],,,4,,4,,,,3/4,,,,{8}2,2,4,,7,7,5,,{16}3h[16:3],,,4h[16:3],,,5,,5,,,,6/5,,,,6h[16:3],,,5h[16:3],,,4,,4,,,,5/4,,3,,{8}3,,6,6,,2,2,4,,7,7,5,,E7,E3,,{16}4/5,,,6x,5x,,4/7,,4/7,,,,5/6,,4,,3/5,,,3x,4x,,2/5,,2/5,,,,4/3,,5,,6/4,,,6x,5x,,7/4,,{4}7h[4:1]/4,8h[4:1],{8}1-5[8:1],1,4,,8-4[8:1],8,5,,{16}3/5,,,7x,5x,,4/6,,4/6,,,,5/7,,4,,3/5,,,2x,4x,,5/3,,5/3,,,,2/4,,5,,{8}5/6,7,3/4,2,{16}5,4,5,4,6,3,6,,{4}Chf[4:1],,1-4[8:1]/8-5[8:1],1b/8b,
{16}2/7,,,8x,{8}1x-5[8:1],1x,7x-2[8:1]*-4[8:1],,7,,{16}2/4,,,1x,{8}8x>6[4:1],8x,2h[4:1],,,1,7h[4:1]/8,,5,4,2h[4:1]/1,,4,5,7/8,1/6,2/5,,1-4[8:1]/8-5[8:1],,1b/8b,,{16}7/2,,,1x,{8}8x-4[8:1],8x,2x-7[8:1]*-5[8:1],,2,,{16}7/5,,,8x,{8}1xp3[4:1],1x,6h[4:1],,,6,{16}4/5,,7,8,7,,1/6,,5/4,,2,1,2<3[4:1],,8/3,,{4}2x,,5-8[8:1]/4-1[8:1],5b/4b,{16}2/7,,,4x,{8}5x-1[8:1],5x,3x-6[8:1]*-8[8:1],,3,,{16}6/8,,,5x,{8}4x<2[4:1],4x,7h[4:1],,,8,2h[4:1]/1,,4,5,7h[4:1]/8,,5,4,2/1,8/3,7/4,,5-8[8:1]/4-1[8:1],,5b/4b,,{16}7/2,,,5x,{8}4x-8[8:1],4x,6x-3[8:1]*-1[8:1],,6,,{16}3/1,,,4x,{8}5xp7[4:1],5x,2h[4:1],,,2,1/8,2/7,3/6,4/5,{16}5x,4x,6x,3x,7x,2x,8x,1x,{2}8h[2:1],Ch[4:1],
{8}2>6[4:1]/6V82[4:1],,,,,E4/B4,B8/E8,,2>5[8:1]/6p1[8:1],,,,{16}7x/8x,,,6x/7x,,,5x/6x,,{8}1V72[4:1]/5V74[4:1],,,,,E4/B3,B7/E8,,1q5[8:1]/5q1[8:1],,,,{16}2x/1x,,,3x/2x,,,4x/3x,,{8}5q2[8:1]/6-1[8:1],,,,{16}E3/B3,,,B7/E7,,,B5/E5,,{8}1q5[8:1]*p5[8:1],,,,{16}4x/5x,,,7x/8x,,,1x/2x,,{1}3V51[8:3]/7V51[8:3],{4}B7/B6/E6,B3/B2/E2,Ch[4:1]/E1/E5,,{8}5/6,,4,4,{16}5h[16:3],,,3h[16:3],,,4,,{8}4/3,,5,5,{16}4h[16:3],,,6h[16:3],,,5,,{8}6,6,4,4,{16}5h[16:3],,,3h[16:3],,,4,,{8}3,3,5,5,{16}4h[16:3],,,6h[16:3],,,5,,{8}4,4,3,3,2,2,1,1,8,8,7,7,6,6,5,5,{16}4,5,4,5,3,6,3,6,2,7,2,7,1,8,1,8,{4}1h[4:1],8b,1-5[8:1]/8-4[8:1],1b/8b,
{16}3/6,,,8x,{8}2xv5[8:1],2x,1-4[8:1]*-6[8:1],,1,,{16}5/7,,,2x,{8}8x<3[4:1],8x,1h[4:1],,,2,3h[4:1]/5,,8,7,4/6h[4:1],,1,2,3/4,2/5,1/6,,{4}1-5[8:1]/8-4[8:1],1b/8b,{16}3/6,,,1x,{8}7xv4[8:1],7x,8-5[8:1]*-3[8:1],,8,,{16}4/2,,,7x,{8}2p4[4:1],2x,6h[4:1],,,6,{16}4/5,,7,8,7,,1/6,,4/5,,2,1,2<3[4:1],,3/8,,{4}2x,,4-8[8:1]/5-1[8:1],4b/5b,{16}7/2,,,4x,{8}6xv1[8:1],6x,5-8[8:1]*-2[8:1],,5,,{16}1/3,,,7x,{8}4x>7[4:1],4x,5h[4:1],,,5,6h[4:1]/4,,1,2,5/3h[4:1],,8,7,6/5,7/4,8/3,,{4}5s1[8:1]/4z8[8:1],5b/4b,{16}7/2,,,5x,{8}3xv8[8:1],3x,4-1[8:1]*-7[8:1],,4,,{16}8/6,,,2x,{8}5p7[4:1],5x,3h[4:1],,,2,1/8,1/8,2/7,2/7,{16}3,6,3,6,4,5,4,5,{4}4h[2:1],,8b,Cf/B2/B3/B6/B7,
{4}7h[8:1]/1h[8:1],4h[8:1]/3h[8:1],{16}8/1,,6,5,7,,1,,{4}8h[8:1]/2h[8:1],5h[8:1]/3h[8:1],1<6[8:1]/2p6[8:1],,5h[8:1]/4h[8:1],1h[8:1]/7h[8:1],{16}4/3,,2,1,3>6[4:1],,8,,{4}8h[4:1],,5/4,{8}E3/B3,E7/B7,{16}1,8,1,,5h[8:1]/6h[8:1],,,,8/1,,3,4,2,,8,,{4}7h[8:1]/1h[8:1],4h[8:1]/6h[8:1],8>3[8:1]/7q3[8:1],,4h[8:1]/5h[8:1],8h[8:1]/2h[8:1],{16}5/6,,7,8,6>7[8:3],,1,,{4}1h[2:1],,,C,E
Re:MASTER
- MASTER譜面を追加しました。修正等ありましたらよろしくお願いします。 -- Sugar (2026-05-10 20:54:13)
最終更新:2026年05月10日 20:54