(154)
{1},
{2}3h[4:3]/7h[4:3],,2h[4:1]/6h[4:1],
{4}1x/2x,7x/8x,2h[4:1]/6h[4:1],,3h[4:1]/7h[4:1],,5x/6x,3x/4x,1x/8x,2b/7b,
{8}6,6,5/7,,3,3,2/4,,6,6,5/7-4[8:1],,,,3/6,,2,2,1/3,,7,7,6/8,,3,3,4/2-7[8:1],,,,1/6,,3,3,2/4,,6,6,5/7,,3,3,4/2-5[8:1],,,,3/6,,7,8,1,2,3/6,,1/8,,{16}4/5,,,4/5,,,{8}4/5,3x/6x,,,,
{4}6h[2:1],,E6,E5,3h[2:1],,E4,E5,6h[2:1],,E6,E5,E4,E2,E8,E6,3h[2:1],,E4,E5,6h[2:1],,E6,E5,3h[2:1],,E4,E5,E7,E1,E3,E5,5/7,4/6,3/5,2/4,3/1-5[4:1],,,,2/4,3/5,4/6,5/7,6/8,1/7,2b/6b,,1/2,3/4,5/6,7/8,2/1-5[4:1],,,,
{8}3/4,3/4,,5/6,5/6,,2/4,,5/7,,1x/8x,1x/8x,,,5,5,
{16}6h[16:3],,,7h[16:3],,,
{8}8,1/7,,,2,2-5[8:1],,6,,4/7,,4,4,
{16}3h[16:3],,,2h[16:3],,,
{8}1,2/8,,,7,7-4[8:1],,3,,2/5,,5,5,
{16}6h[16:3],,,7h[16:3],,,
{8}8,1/7,,,2,2-5[8:1],,6,,4/7,,1,1,1/8,,
{4}2/3,4/5,6/7,1-4[8:1]/8-5[8:1],,2b/7b,
{16}1,,1,,2h[16:3],,,3h[16:3],,,
{8}4,3/5,,,6,6-1[8:1],,2,,3/8,,8,8,
{16}7h[16:3],,,6h[16:3],,,
{8}5,4/6,,,3,3-8[8:1],,7,,1/6,,1,1,
{16}2h[16:3],,,3h[16:3],,,
{8}4,3/5,,,6,6-1[8:1],,2,,3/8,,5,5,4/5,,
{4}6/7,1/8,2/3,4/5,1/8w4[4:1],,,2xh[4:3]/6xh[4:3],,,,3h[4:3]/5h[4:3],,,,4h[4:3],,,,5h[4:3],,,,3h[4:3],B3,B4,B5,6h[4:3],B6,B5,B4,3,2/4,6,5/7,1-4[8:1]/8-5[8:1],,2b/7b,
{16}4,,5,,6h[16:3],,,7h[16:3],,,
{8}8,1/7,,,1/2,1-6[8:1]/2-5[8:1],,,,4/7,,5,4,
{16}3h[16:3],,,2h[16:3],,,
{8}1,2/8,,,7/8,7-4[8:1]/8-3[8:1],,,,2/5,,8,1,
{16}2h[16:3],,,3h[16:3],,,
{8}4,3/5,,,5/6,5-2[8:1]/6-1[8:1],,,,3/8,,7,6,4/5,,
{4}2/3,1/8,6/7,4x/5x,5x/4xw8[1:1],,,,,,,
{8}3,4,2/5,,5/7,,2/4,,8,7,1/6,,4,3,2/5,,8,7,6/1-5[8:1],,,,3/7,,1,2,3/8,,5,6,4/7,,1,2,3/8-4[8:1],,,,2/6,,7,8,1,2,3/6,,8/1,,{16}4/5,,,4/5,,,{8}4/5,3b/6b,,,,{16}1x/8x,,,1x/8x,,,{8}1x/8x,B2/B7/Cf,
E