| アーティスト |
かいりきベア feat.flower |
BASIC
ADVANCED
EXPERT
MASTER
(152){4},,,4b/5b,
{8}46,3,45,3,4/7h[16:3],{16},6h[16:3],{8},5-7[8:1],,4,3,2,18,,27,,
35,6,45,6,2h[16:3]/5,{16},3h[16:3],{8},4-2[8:1],,5,6,7,18,,27,,
4x/6x,3,47,3,4/5h[16:3],{16},6h[16:3],{8},7-5[8:1],,3,3,2,17,,28,,
35,6,25,6,4h[16:3]/5,{16},2h[16:3],{8},1-5[8:1],,8,8,7,46,,2x/7x,,
3h[16:3],{16},4,3,,2,,2h[16:3],,,4,2,,3,,3h[16:3],,,4,3,,3,,E4,,B2,,E5,,C,,
6h[16:3],,,5,6,,7,,7h[16:3],,,5,7,,6,,6h[16:3],,,5,{8}6,7,56,,1b,,
8x,8x,1x/7x,,45,{16}3,4,3,,6,5,6,,3,4,2,,6,5,7,,2,,28,,,,
7h[16:3],,,5,5,,6,,2h[16:3],,,4,4,,3,,{4}4/5<4[8:3],,,2b/7b,
{8}3-7[8:1],3,6-2[8:1],6,1,{16},3,{8},5h[4:1]/7,,7,6,5,34,,25,,
3-7[8:1],3,6-2[8:1],6,1,{16},3,{8},5h[4:1]/7,,7,6,5,34,,2x/7x,,
{16}3,4,3,,46,,5,,3/4h[16:3],,,1,,,56,,5h[16:3]/6,,,7,,,34,,2-4[8:1]/5,,25,,,,,,
6,5,6,,35,,4,,5h[16:3]/6,,,8,,,34,,3/4h[16:3],,,2,{8},35,46,6,1b,,
8x,8x,1x/7x,,{16}4,5,3,4,2,,2,,5,4,6,5,7,,7,,1,8,{8}1,2b/7b,,
3-5[8:1],3,7,7,6-4[8:1],6,2,2,3^6[8:1],3,7,7,8,1b,1b,,
7,7,56,7,7,{16}E5,E4,E3,,,,2,,2,,3,4,2,,2,,1b/8b,,1b/8b,,,,
2,,2,,3,4,2,,2,,E5,E6,{8}E7,,7,7,56,7,7,7b/8b,7b/8b,,
{16}7,8,7,,6,5,7,,7,,E5,E4,{8}E3,,1-5[8:1],1,5b,6,7-2[8:1],7,3>6[2:1],3,
Cf,,,,,,5,3,26,35,26,35,26,,1b/8b,,
2x-5[8:1],,6x-1[8:1],,4,4,8,7,46,37,46,37,46,,1b/8b,,
2x-5[8:1],2,7-3[8:1],7,1^6[8:1],1,4-8[8:1],4,2,2,17,{16}6,5,,3,{8}4,25,2,
1-5[8:1]/6-1[8:1],,16,,3-8[8:1]/8-4[8:1],,38,,1,28,37,46,5b-2[8:1]*-8[8:1],,5b,,
1x^6[8:1],1,5-8[8:1],5,1-5[8:1],1,7-4[8:1],7,3,3,12,{16}7,8,,6,{8}5,47,3,
2-5[8:1]/5,,2/8b,,4/7-4[8:1],,1b/7,2,26,15,2^5[8:1]/6^1[8:1],15,26,,C/B2/B4/B6/B8,,
3x/7x,,37,6,36,,35,4,3/4-6[8:1],,2-4[8:1],,B8,,C,,
2x/6x,,26,3,36,,46,5x/7xh[8:5],,,,,{16}1x,8x,2x,7x,3x,6x,4x,5x,
{8}2V48[4:1],2,8,7,6V84[4:1],6,4,3,2,1,78,{16}6,6,,3,4,,25,,,,
6,,57,,3,,24,,7,8,7,,2,1,2,,3h[16:3]/8,,,4h[16:3],,,5,,56,,,,18,,,,
2,4,3,5,4,6,5h[8:1],,7,5,6,4,5,3,4,,2xh[16:3],,,1,{8}2,38,4-8[8:1]/7^4[8:1],,,,
1,1,18,8,68,6,46,4,{2}4/Ch[2:1],,
8^5[4:3],,1^4[4:3],,
5h[8:5],{16},,4,5,{8}36,,18,27,18,27,B2,B7,E4,E6,
1-5[8:1],1,7-3[8:1],7,2b,4b,5b,7b,1^4[16:1]/8^5[16:1],36,1b/8b,{16},Cf/B3/B4/B5/B6,,,1x/8x,,{4}2x/7x,
4-1[8:1]*-7[8:1],4b,5-2[8:1]*-8[8:1],5b,4^1[8:1]*^7[8:1]/5,4b,4/5^2[8:1]*^8[8:1],5b,
{8}7x-4[8:1],7,2-6[8:1],2,8^3[8:1],8,5-1[8:1],5,7,7,28,{16}3,4,,6,{8}5,37,2,
2-6[8:1]/4-8[8:1],,24,,5-1[8:1]/7-3[8:1],,57,,8,17,26,35,4bw8[8:1],,4b,,
8x^3[8:1],8,4-8[8:1],4,7-3[8:1],7,2-5[8:1],2,6,6,78,{16}2,1,,3,{8}4,57,7,
4x/8x-4[8:1],,2b/8,,1x-5[8:1]/5x,,1/8b,7,26,15,2^5[8:1]/6^1[8:1],15,26,,4x/8x,7,
26,15,2^5[8:1]/6^1[8:1],15,26,,1x/5x,8,37,26,3^6[8:1]/7^2[8:1],26,37,,C/B2/B4/B6/B8,,
3x-7[8:1],3,6-2[8:1],6,1,{16},3,{8},5h[4:1]/7,,7,6,5,34,,27,,
3-7[8:1],3,6-2[8:1],6,1,{16},3,{8},5h[4:1]/7,,7,6,5,24,,18,,
3b-7[8:1],3,6-2[8:1],6,1,{16},3,{8},5/7h[4:1],,8,16,2,38,,57,,
3-7[8:1],3,6-2[8:1],6,1,{16},3,{8},5/7h[4:1],,8,16,2,3/4-8[8:1],,1>8[4:3],,
{1}8x,{16}2h[16:3]/6,,,4,3,,45,,6,5,7,,48,,2b/6b,,
{1},,E
Re:MASTER
最終更新:2026年07月11日 17:15