アットウィキロゴ

脳漿炸裂ガール〈でらっくす〉

アーティスト れるりり

BPM BASIC ADVANCED EXPERT MASTER Re:MASTER
155 4 6 11 12+ -

EXPERT MASTER Re:MASTER
譜面制作者 Jack はっぴー -

BASIC


ADVANCED


EXPERT

(155)
{4}3h[1:1],,,,6h[1:1],5,,5,3h[1:1],,,,6h[1:1],5,4,3,2,1/3,
{16}2h[16:3],,,3h[16:3],,,
{8}4,4-8[8:1],,,,
{4}1-5[8:1],,7,6/8,
{16}7h[16:3],,,6h[16:3],,,
{8}5,5-1[8:1],,,,
{4}8-4[8:1],,2,1/3,
{16}2h[16:3],,,3h[16:3],,,
{8}4,4-8[8:1],,,,
{4}1-5[8:1],,7,6/8,
{16}7h[16:3],,,6h[16:3],,,
{8}5,5<4[16:5],,,,,,C,,6,5,4/7,,1,8,2/7,,3,4,2/5,,4/7,,B5/B6,,7,8,1/6,,4,5,3/6,,2,1,3/8,,6,6,5,5,3,4,2/5,,8,1,2/7,,6,5,4/7,,2/5,,B3/B4,,2,2,7,7,3,3,6,6,4,4,5,5,4>1[2:1],5p8[2:1],{1},{8}8<5[2:1],1p4[2:1],{4},,,
{8}2<7[8:3],6q3[16:7],{1},
{4}B4/B5,E3/E7,B1/B8,2/7,
{8}3/6,4,5,6,7,8,1/6,,3/4,4/5,5/6,,4-8[8:1]/5-1[8:1],,,,2/7,8,1,2,3,4,2/5,,7-5[8:1]/8-4[8:1],,,,1-5[8:1]/2-4[8:1],,,,7,5,6,6,2,4,3,3,5,4,3/6,,7-3[8:1],2-6[8:1],,,7,7,6/8,,2,2,1/3,,
{16}4x,5x,4x,5x,4x,5x,4x,5x,4x{2}4x,
{8}1h[2:1]/5h[2:1],,,,,1/5,6,6,3,3,7,7,2,2,8,8,1-6[8:1],6-1[8:1],,,8-3[8:1],3-8[8:1],,,1,1,8,8,1>4[8:1]/7<4[8:1],,,,4h[2:1]/8h[2:1],,,,,4/8,3,3,5,5,4,4,6,6,4/5,,6h[4:1]/7h[4:1],,,,2h[4:1]/3h[4:1],,,,
{16}1x,8x,1x,8x,1x,8x,1x,8x,1x,8x,1x,8x,1x,,,,,,,,,,,,7b/8b,,,,1b/6b,,,,2,4,,4,2,,
{8}2,8,8,{16}4,7<4[8:1],,7,{2},
{4}2-5[8:1],6,3-8[8:1],7,2-5[8:1],6,B7/B8,B3/B4,1b/2b,3b/8b,
{16}7,5,,5,7,,
{8}7,1,1,{16}5,2>5[8:1],,2,{2},
{4}7-4[8:1],3,6-1[8:1],2,7-4[8:1],3,B1/B2,B5/B6,3b/4b,1b/7b,
{16}2,4,,4,2,,
{8}2,8,8,
{16}4,7p3[8:1],,7,{2},
{4}2-5[8:1],7-4[8:1],3-8[8:1],6-1[8:1],2-5[8:1],6,B7/B8,B3/B4,5b/6b,2b/8b,
{16}1x,8x,1x,8x,2x,7x,2x,7x,3,,4,,5,2q6[8:1],,2,{2},
{4}7-3[16:1],2-6[16:1],8-4[8:1],1,
{8}1/8,2,3,4,5,6,2b/7b,,
{1}Cfh[1:1],,
{16}8,,8h[16:3],,,1h[16:3],,,2h[16:3],,,3h[16:3],,,
{8}4,4-8[8:1],,
{4}2,3-1[8:1],8,
{16}1,,1h[16:3],,,8h[16:3],,,7h[16:3],,,6h[16:3],,,
{8}5,5-1[8:1],,
{4}7,6-8[8:1],1,
{16}8,,8h[16:3],,,1h[16:3],,,2h[16:3],,,3h[16:3],,,
{8}4,4-8[8:1],,
{4}2,1-5[8:1],7,
{16}6,,5/6,,3,4,,4,5,,5,6,,,1/8,1x/8x,
E

MASTER


Re:MASTER


名前:
コメント:

タグ:

+ タグ編集
  • タグ:
最終更新:2026年06月29日 20:17