アットウィキロゴ

お呪い

アーティスト なきそ

BPM BASIC ADVANCED EXPERT MASTER Re:MASTER
115 2 6 10 13 -

EXPERT MASTER Re:MASTER
譜面制作者 きょむりん アマリリス -

BASIC


ADVANCED


EXPERT


MASTER

(115){1},
{4}A4/Ch[4:3],,,3b,2h[2:1],B5,4h[2:1],A1,8h[2:1],A7,{8}6,6,{4}68,6h[4:1]/A5,{48}B6,B7,,{16},,,{4}3h[4:1]/A4,{48}B3,B2,,{16},,,{4}36,{48}B2,B7,,{16},,,{48}B8,B1,,{16},,,{4}D1,
3pp6[2:1],{8}7,7,8,,1,,2qq7[2:1],,5,5,4,,3,,35,46,7p4[4:1]/5>8[4:1],,,,,4x/8x,
4b/8b>4[8:1],4-6v5[4:1],5,6,7,8,1,15,3/7<3[8:1],3p4[4:1],2,2,1,8,4x/8x,,3/7-4[8:1],18,7,8,2-5[8:1]/6,18,2,1,4/8-4[8:1],37,1b/8b,,1-5[8:1]/5,26,1b/8b,,1x<5[8:1]/5x,5-3v4[4:1],4,3,2,1,8,48,2>6[8:1]/6,6q5[4:1],7,7,8,1,1x/5x,,37,7qq8[8:3]/3qq4[8:3],,,,,,{24}A4,A5,,
{8}7xh[4:1],,8,{16}8,7,8,,7,,78,,{16}6,6,{8}5h[4:1],,7,{16}6,5,6,,56,,45,,{16}2,4,{8}2h[4:1],,1,{16}1,2,1,,2,,12,,{16}3,3,{8}4h[4:1],,2,{16}3,4,{8}3,34,16,,
{12}7x,7,7,5x,5,5,3x<6[8:1],3,3,1bx,,,3x,3,3,1x,1,1,8x,8,8,1bx/6bx,,,7x,7,7,5x,5,5,3x<6[8:1],3,3,1bx,,,2x,2,2,4x,4,4,6x,6,6,{4}1b/8b,
1>4[8:1]*<6[8:1]/C,,5>2[8:1]*<8[8:1]/C,,1V35[4:1]/7,1x/5s1[4:1],6,A7/E8,2-6[8:1]/6,2x/4,3/7-3[8:1],5/7x,4<7[8:1]/5,1/4x>1[8:1],4x/7,B6/B7,8-4[8:1]/3-1[8:1],3x/8x,5-1[8:1]/2-4[8:1],2x/5x,2p5[8:1]/7,2x/5>2[8:1],A6/D7,A7/D8,{8}8<5[8:1]/2v5[8:1],13,2x/8x,,7v4[8:1]/1>4[8:1],68,1x/7x,,3,24,5<2[4:1]/3q5[4:1],,,,,1x/5x,
1b/5b>1[8:1],1-7v8[4:1],8,7,6,5,4,48,2/6<2[8:1],2q1[4:1],3,3,4,5,1x/5x,,2/6-1[8:1],45,6,5,3-8[8:1]/7,45,3,4,1/5-1[8:1],26,4b/5b,,4-8[8:1]/8,37,4b/5b,,4x<8[8:1]/8x,8-2v1[4:1],1,2,3,4,5,15,3>7[8:1]/7,7p8[4:1],6,6,5,4,4x/8x,,6pp5[8:3]/2pp1[8:3],37,,,{2},
2qq5V73<1[4:7]/7,E1,B6,B4,C,6-3[8:7]/3-6[8:7],,{4},B2/B6,
{8}4bV28[8:1]/8b,8pp6[4:1],7,7,6,5,4x,48,1/5V72[8:1],2q1[4:1],3,3,4,5,2x/6x,,18,18,7pp6[4:1]/2qq3[4:1],45,,,,,6b-2[8:1]/5b-1[8:1],38,5b/6b,,4b-8[8:1]/3b-7[8:1],16,3b/4b,,1b/5bV71[8:1],1qq3[4:1],2,2,3,4,5x,15,4V27[8:1]/8,7p8[4:1],6,6,5,4,3x/7x,,1x/5x,26,37,48,5-2b[8:1]/1-6b[8:1],,1b/5b,,3x/7x,26,15,48,7-2b[8:1]/3-6b[8:1],,3b/7b,,45,36,27,1h[4:1]/8h[4:1],,,{16}E1,C,D5,,
{8}6xh[4:1],,5,{16}7,8,7,,78,,12,,3,4,{8}3h[4:1],,4,{16}2,1,2,,12,,78,,6,6,{8}5h[4:1],,6,{16}7,8,7,,78,,25,,3,3,{8}4h[4:1],,3,{16}2,1,2,,12,,47,,{1}A5/A6/D6,,,,
E

Re:MASTER


名前:
コメント:

タグ:

+ タグ編集
  • タグ:
最終更新:2026年06月27日 12:34