アットウィキロゴ

アルティメットセンパイ

アーティスト ピノキオピー

BPM BASIC ADVANCED EXPERT MASTER Re:MASTER
145 2 6 9 13 -

EXPERT MASTER Re:MASTER
譜面制作者 畳返し サファ太 -

BASIC


ADVANCED


EXPERT


MASTER

(145){4}
4h[16:11]/5,5,5h[8:3],,{8},4,4h[16:7],5,{4}5h[16:3],,
3h[4:1],4h[4:1],5h[4:1],6h[2:1],5,4,3-5[8:1]/5h[4:1],,

7,6,{16}56,,,45,{8},34,2,2,4,3,E1/B1/B8,,E5/B4/B5,,
27,,3,,34,{16},45,{8},56,7,7,5,5,E6,E5,E8,E1,
6h[4:1],,5h[4:1],,6,{16},45,{8},34,2,2,4,3,E5,E4,C,B2,
7h[16:3],{16},6h[16:3],,,5,,2h[16:3],,,3h[16:3],{8},4,4v2[8:1],,7-5[8:1],,3x,,C,,
6,6h[8:1],5,7,5,5h[8:1],7,5,8v3[8:1],8,5v2[8:1],5,7v4[8:1],7,3,2,
1,1h[8:1],4,2,4,4h[8:1],2,4,3-8[8:1],3,7s3[8:3],7,1x,1x,1x,1x,
2,2h[8:1],1,3,1,1h[8:1],3,1,4v2[8:1],4,7v5[8:1],7,3x,3x,3x,3x,
2-4[8:1],2,4,5,6v4[8:1],6,3,2,2v5[8:1],5,7-4[8:1],8,4,,35,,

4h[1:1],,,,,,E5,E4,6h[1:1],,,,,,B3/B4,,
5h[4:3],,,,,E7,{4}E6,3x/5x,5x/7x,4/8-4[8:1],1b,

{16}3,5,2,6,1-5[8:1],7,1,8,1x,,6x,,4x/7x,,,,3,5,2,6,1-5[8:1],7,1,8,1x,,6x,,4x/7x,,,,
7,5,,3,4,,25,,6h[8:1],,8h[8:1],,1h[8:1],,3,,6,5,7-4[8:1],4,8-3[8:1],3,7,,8,,7x,,2b/8b,,,,
3,4,2,5,1-5[8:1],6,8,7,{8}1x,6x,3x/7xh[4:1],,4^1[8:1],7^4[8:1],4,7,1x,B5/B6,B2/B3,,
8-2[8:1],8,3-5[8:1],3,6-8[8:1],6,1,2,3x/8x,{16}6,5,,3,4,,1,8,1,,2b/7b,,,,
3,4,3,4,3v8[8:1],,5,,3b/6x,,,,3x/7x,,3x/7x,,8,2,8,2,8^5[8:1],,3,,4x/8b,,,,2x/6x,,2x/6x,,
7,8,7,8,{8}7-2[8:1],6,5/7b,,1,,5h[8:1]/7h[8:1],,2h[8:1]/4h[8:1],,45,E6/E7,E2/E3,,
{16}6,5,7,4,8-4[8:1],3,1,2,8,,,,35,,46,,57,,6,5,,3,4,,26,,1b/7b,,2b/8b,,,,
7,5,7,5,6,4,6,4,5,3,6,2,{4}7-4[8:1],3-7[8:1]/7x,3x/5-1[8:1],2-6[8:1]/5x,2x/8pp3[1:1]*qq5[1:1],
8b,,,,,,,{8},6x,
5x/7h[8:3],,,3x,2h[8:3]/4x,,,6x,5x/7,2x,1/4x,7x,5x/8h[4:1],,C,,

1-5[8:1],,6,7,6x-2[8:1]/8x-4[8:1],,68,,1x^4[8:1],1,5^8[8:1],5,1,1,2,38,
4/7-3[8:1],4,3,2,2-6[8:1]/5,5,6,7,5-1[8:1]/8,5,7-3[8:1],7,2,2x,1x/2x,,
8x-4[8:1],,3,2,1x-5[8:1]/3x-7[8:1],,13,,8x^5[8:1],8,3^8[8:1],3,5^8[8:1],5,2,2,
1x-5[8:1],1,3,2,1-5[8:1],1,6,7,8-4[8:1],8,2,1,8-4[8:1],8,5,6,
4x/7,3,2/5>1[4:1],6,7,7,8,8,1,2,3/8>5[4:1],7,6h[2:1],,,,

{1}Ch[1:1]/B4/B5,8h[2:5],
4^1[8:3],1h[2:3],
Ch[1:1]/B4/B5,1^4[8:3],
{4}E5,C,E1,E3/E7,Cf,,1x/8x,,
{16}6,6,5,7h[8:1],,1,,1,,45,45,,2>7[2:1]/7,,18,,

{4},,8p4[8:1]*q5[8:1],8x,{16}3x/6x,,2,1,,7,8,,4-1[8:1]/5-8[8:1],,36,,,,,,
2x/7x,,3,4,3,,6,5,7,,2,4,3,,26,,7,8,6-1[8:1],1,5-2[8:1],2,6,,5,,7x,,4x/8x,,,,
2,1,3,8,4-8[8:1],7,5,6,{8}4,5x,1x/7xh[4:1],,4^1[8:1],7v4[8:1],4,7,1x,E6/B5/B6,E3/B2/B3,,
7^2[8:1],7,4-8[8:1],4,5-1[8:1],5,4,3,28,{16}6,5,,3,4,,7,8,7,,2b/6b,,,,
1-5[8:1],5,1,5,{4}1^4[8:1]*^6[8:1],1b,3x/7x,{16}8-4[8:1],4,8,4,{4}8^3[8:1]*^5[8:1],8b,2x/6x,
{16}1-5[8:1],5,1,5,{4}1w5[8:1],1b,3x/7x,{16}6,5,,2,1,,7,8,6,,1b/5b,,3b/7b,,,,
2,1,3,8,4-8[8:1],7,5,6,4,,,,1x/7x,,26,,35,,2,4,,7,5,,16,,3b/8b,,1b/6b,,,,
2,4,3,5,4,6,5,7,1,8,1,8,{4}1-5[8:1],1x/6^1[8:1],2^5[8:1]/6x,2x/7-3[8:1],4-8[8:1]/7b,
4x/6^1[8:1],2-6[8:1]/6x,2x/7-3[8:1],1-5[8:1]/7b,1b/6^1[8:1],4-8[8:1]/6b,4b/7-3[8:1],1bpp4[4:5]*qq6[4:5]/7b,
1b,,,,,,,,
3h[4:1],4h[4:1],{16}3,,,45,{8},5/6h[4:1],,5,5,4,{1}3/6-2[8:1],,E

Re:MASTER


名前:
コメント:

タグ:

+ タグ編集
  • タグ:
最終更新:2026年07月25日 18:19