アットウィキロゴ

アニマル

アーティスト DECO*27

BPM BASIC ADVANCED EXPERT MASTER Re:MASTER
188 3 7+ 10+ 13 -

EXPERT MASTER Re:MASTER
譜面制作者 カマボコ君 Redarrow -

BASIC


ADVANCED


EXPERT


MASTER

(188){1},
{8}4h[4:15],,E6,E5,,,C,,,,E6,E5,,,C,,
,,B6,E5,,,C,,,,B6,E5,,,C,,
{2}2h[4:1]/8h[4:1],4h[4:1]/7h[4:1],1h[4:1]/6h[4:1],3h[4:1]/5h[4:1],
{8}34,4,25,2,16,6,78,78,,26,,47,4h[8:1]/7p3[8:1]b,,3bx/7bx,,

2xh[4:1],,1,3,8,4,6,5h[4:1],,7,4,7,1,5,2,4h[4:1],
,3,6,3,8,4,7,4,56,6,35,3,4-8[8:1]/5-8[8:1],,,,
7xh[4:1],,8,6,1,5,3,4h[4:1],,2,5,2,8,4,7,5h[4:1],
,6,3,6,1,5,2,34,,36,,18,27,,,5,

46,,4,5,4,,6,6,,4,5,4,36,,E6/E7,,
34,,5,4,5,,3,3,,26,,3,4h[4:1]/5h[4:1],,,,
47,,4,5,4,,7,7,,5,6,5,47,,E6/E7,,
34,,5,3,5,,26,26,,25,3,47,5q2[4:1]/6<2[4:1],,,,

,,3,3^6[8:1],,7,7,,48,,27,2/7p2[8:1],,1,1,,
3bx/4bx,,2bx/5bx,1bx/6bx,7bx/8bx,,3bx/5bx,3bxh[8:1]/5bxh[8:1],,4bx/8bx,,2bx/6bx,2bxpp4[4:1]b/6bxpp8[4:1]b,,,,
,,3x/5x,3x/5x,,26,3,4,56,7,48,3,12,8,37,,
{2}Ch[8:7],,,{8},18,18,,

2b^4[8:1],2,1q5[8:1],1,8,8,,1v4[8:1]/7v4[8:1],,17,,5,2pp4[8:1],7qq5[8:1],2,7,
,3,3h[4:1],1,1h[4:1],8,8,7^2[8:1],,37,,2x/3x,2x-7[8:1]/3x-6[8:1],,,,
8,2,7-3[8:1],1-5[8:1],7bx,1bx,,4x/6x,,5,3,7,2-6[8:1],8-4[8:1],2bx,8bx,
,3^5[8:1],3,7^5[8:1],7,1,2,4x-1[8:1]/5x-1[8:1],,45,,78,7<2[4:1]/8p1[4:1],,,,
,,3b/7b,,45,1-5[8:1]b/6-2[8:1]b,,{24}1bx/6bx,Cf,,,,,8w4[8:1]b,,,,,,8bx,Cf,,{8},2x/6x,2x/6x,,
3-8[8:1],3,5-8[8:1],5,,1,1h[4:5],4,4,4,3,3,2q6[8:1],,,,
7b^5[8:1],7,8p4[8:1],8,1,1,,2v5[8:1]/8v5[8:1],,28,,4,7qq5[8:1],2pp4[8:1],7,2,
,6,78,1,27,3,45,4-8[8:1]/5-1[8:1],,4b/5b,,2b/7b,2b/7b,,,,

2xh[16:3],{16},3h[16:3],,,4,,6xh[16:3],,,5h[16:3],,,4,,3xh[16:3],,,4h[16:3],{8},5,3x/6x,,5,5h[1:1],
,E5,,6,6,,4,4h[8:7],,E5,,3,3,,5,5h[8:5],
,E5,,6,6,,4x/7x,4x/7x,,D2/A1/A2,,D7/D8/A7,,D3/D4/A3,,5h[1:1],
,C,,6,6,,4,4h[8:7],,C,,3,3,,5,5h[8:5],
,C,,6,6,,4x/7x,{4}4x/7x,D1/D2/A1,D8/A7/A8,D2/D3/A2,D7/A6/A7,
D3/D4/A3,D6/A5/A6,D4/A4,D5,,{16},,4bx,5bx,3bx,6bx,2bx,7bx,1bx,8bx,

{8}1xh[4:1],,7,7^4[8:1],,8,8-4[8:1],,1h[4:1],,2,2^5[8:1],,1,1-5[8:1],,
8h[4:1],,7,7-3[8:1],,8-4[8:1],,5,,37,,15,1pp3[4:1]/5pp7[4:1],,,,
,,4x/6x,4x/6x,,37,6,5,34,2,15,6,78,1,26,,
{1}Ch[2:3],,

{4}3x^5[8:1]/7xh[4:7],,5x^3[8:1],,3x^5-2[4:1],,,2x,
2xh[4:7]/6x^4[8:1],,4x^6[8:1],,6x^4[8:1],,{8}4x,4x,4x,,
4x^6[8:1]/7xh[4:7],,,,6x^4[8:1],,,,4x^6-3[4:1],,,,,,3x,,
6-2[8:1],,2,3,3-7[8:1],,7,6,6-3[8:1],,3,2,1,,18,1h[4:3]/8h[4:3],
{1},

{8},E8,B8,B1,,B5,B4,E4,,E1,B1,B2,,E7,B6,B5,
,E4,E5,E6,,B3,B4,B5,,B2,C,B7,,1x,1x,,
12,8,12,3,12,8,37,,56,4,56,7,56,4,37,,
34,34,25,25,16,{16}7,8,7,8,{8}7,,16,,37,3^5[8:1]/7^5[8:1],,,,

4x/6x,{16}3,4,3,,26,,37,,6p2[8:1]b,5,{8}6,1bx/6bx,,1,8,3,7qq5[8:1],2pp4[8:1],7,2,
,6,6h[4:1],8,8h[4:1],1,1,2^7[8:1],,26,,6x/7x,6x-3[8:1]/7x-2[8:1],,,,
1,7,2-6[8:1],8-4[8:1],2bx,8bx,,3x/5x,,4,6,2,7-3[8:1],1-5[8:1],7bx,1bx,
,6^4[8:1],6,2^4[8:1],2,8,7,4x-8[8:1]/5x-8[8:1],,45,,12,1q8[4:1]/2>7[4:1],,,,
,,2b/6b,,45,3-7[8:1]b/8-4[8:1]b,,{24}3bx/8bx,Cf,,,,,1w5[8:1]b,,,,,,1bx,Cf,,{8},3x/7x,3x/7x,,
6-1[8:1],6,4-1[8:1],4,,8,8h[4:5],5,5,5,6,6,7p3[8:1],,,,
2b-4[8:1],2,1-5[8:1],1,8,8,,17,,28,37,46,2pp4[8:1],7qq5[8:1],2,7,
,3,12,8,27,6,45,36,,2/6b,2/6b,4/8b,4-1[8:1]/8b-5[8:1],,,,

8>4[4:1],,4<8[4:1],,8-4-2[4:1]*-4-6[4:1],,,,,{32}A8,E8,E7,,A2,E3,E4,,B1,C,,,,,,,A7,E7,B6,,A1,E2,B2,,A8,B8,,,
{4}1<5[4:1],5>1[4:1],1-5-3[4:1]*-5-7[4:1],,{32},,,,A1,E2,E3,,A7,E7,E6,,B8,C,,,,,,,A2,E3,B3,,A8,E8,B7,,A1,B1,,,
{4}8>4[4:1],4<8[4:1],8-4-2[4:1]*-4-6[4:1],,{32},,,,A8,E8,E7,,A2,E3,E4,,B1,C,,,,,,,A7,E7,B6,,A1,E2,B2,,A8,B8,,,
{4}1<5[4:1],5>1[4:1],1-5-3[4:1]*-5-7[4:1],,{8},A2/B2,A8/B8,A3/B3,A6/B6,A1/B1,A7/B7,A4/B4,
Cfh[4:1],,2b,,18,8,17,7,16,6,15,5,1-5[8:1]/4-8[8:1],,,,
5x/8x,5,48,4,38,3,28,2,1-5[8:1]/8-4[8:1],,,,36,27,18,,
3h[4:1],4bx,5h[4:1],4bx,2h[4:1],4bx,6h[4:1],4bx,1h[4:1],4bx,7h[4:1],4bx,8,17,26,35,
{16}4,5,4,5,3,6,3,6,2,7,2,7,1,8,{8}1w5[8:1],,1,,3b/7b,{1}3b/7b,,E

Re:MASTER


名前:
コメント:

タグ:

+ タグ編集
  • タグ:
最終更新:2026年08月29日 16:33