BASIC
ADVANCED
EXPERT
MASTER
(240)
{1},
{4}Cf/E7,,,Cf/E3,,,Cf/E1,,
{4},6,7,{8}8,1,,,{4}E1,C,E5,
{8}34,,25,,3,4,,{4}E2/E4,E5/E7,E2/E4,{8}8,8,,
{8}56,,47,,6,5,,{4}E6/E8,E3/E5,E6/E8,{8}1,1,,
{8}38,,47,,6,5,,4/7h[8:3],,,{4}5h[4:1],4h[4:1],2,
{8}3,,4,,6,5,,4b/8b,,,{4}E1,E3,E5,
{8}56,,47,,6,5,,{4}E6/E8,E3/E5,E6/E8,{8}1,1,,
{8}34,,25,,3,4,,{4}E2/E4,E5/E7,E2/E4,{8}8,8,,
{8}16,,25,,3,4,,5/2h[8:3],,,{4}3h[4:1],4h[4:1],5,
{8}56,,45,,3,4,,25,,36,,6,5,,47,,
{8}38,,27,,3,4,,16,,,{4}E6,E5,E4,
{4}3^8[4:1],,5,6,6^1[4:1],,4,3,
{2}3h[4:1],1h[4:1]/2h[4:1],7h[4:1]/8h[4:1],6h[4:1],
{4}6^1[4:1],,4,3,3^8[4:1],,5,6,
{2}5h[4:1]/7h[4:1],3h[4:1]/4h[4:1],5h[4:1]/6h[4:1],2h[4:1]/4h[4:1],
{4}2^5[4:1],,8,7,7^4[4:1],,1,2,
{4}3^6[4:1],8h[2:1],,1,{8}2h[8:3],,,3h[8:3],,,4>7[4:3],,
{4}7,,5,5,6h[4:1],5,4h[4:1],5,
{4}7h[4:1],5,3h[4:1],5,8h[4:1],5,37,6/4^1[4:1],
{8}Ch[4:7],,,,,,,1x^6[8:1],,,,,1x^4[8:1],,,,
{4}1,4,3,{8}2,2,,,{4}17,26,3/5^8[4:1],
{8}Ch[4:7],,,,,,,8x^3[8:1],,,,,8x^5[8:1],,,,
{4}8,5,6,{8}7,7,,,{4}28,37,6/4^1[4:1],
{8}Ch[4:7],,,,,,,1x^6[8:1],,,,,1x^4[8:1],,,,
{4}1,4,3,{8}2,2,,,{4}E8,E4,C,
{4}2,8^5[4:1],4,3,7,1^4[4:1],6,5s1[2:1],
{4}4,,,4,37,26,15,25,
{4}45,36,27,{8}1,8,,,{4}E1,C,E5,
{4}7/2-5[4:1],5,6-1[4:1],1,2,{8}3,24,,6,57,,
{4}78,12,34,56,8-4[4:1],{8}3,3-8[4:1],,7,7<3[2:1],,
{4}3,2,1,35,1-5[4:1],{8}6,6-1[4:1],,2,2>6[2:1],,
{4}6,7,8,1-5[4:1],7,8-4[4:1],2,1>5[2:1],
{4}6,7,8,7,3^6[4:1],{8}7,7p2[4:1],,1,1,,
{4}8,8,7,56,1-4[4:1],{8}8,8-5[4:1],,1,1pp1[2:1],,
{4}6,7,8,7,56,2,34,7>3[8:5],
{4}5,,4qq8[4:3],5,,,,,
{4}E7,E1,E3,E5,B6/B7/E7,B2/B3/E3,Cf,,
{12}7,,6,5,,5,6,,47,,,24,,,,{8}1,,8,,17,17,
{8},,28,,12,12,,78,,,{4}18,57,18,
{12}2,,3,4,,4,3,,25,,,57,,,,{4}8,1,28,
{4}57,46,35,{8}24,24,,,{4}56,35,56,
{12}47,,8,1,,27,,,1,8,,8,7,,7,5,,5,4,,4,2,,2,
{4}1,7h[4:1],5h[4:1],4h[4:1],2,1,{8}78,78,,16,
{8},,38,,12,12,,48,,,{4}6,45,3,
{8}27,,36,,5,4,,3/6<2[8:3],,,,,3^6[4:1],,,,
{4}8,{12}7,,7,5,,5,4,,4,2h[4:1],,,{4}4h[4:1],5h[4:1],7,
{4}1/7-4[4:1],4,3-8[4:1],8,7,{8}6,57,,3,24,,
{4}12,78,56,34,1-5[4:1],{8}6,6-1[4:1],,2,2>6[2:1],,
{4}6,7,8,57,8-4[4:1],{8}3,3-8[4:1],,7,7<3[2:1],,
{4}3,2,1,8-4[4:1],2,1-5[4:1],7,8<4[2:1],
{4}2,2,1,2,3^6[4:1],{8}7,7p2[4:1],,1,1,,
{4}8,8,7,56,8-5[4:1],{8}1,1-4[4:1],,8,8qq8[2:1],,
{4}3,2,1,7,45,1,3x/7x,3x/7x,
{4}2/8-5[4:1],5,4-1[4:1],1,8,{8}7,68,,2,13,,
{4}18,57,45,24,{8}2h[4:1]/3h[4:1],,,1h[4:1]/5h[4:1],,,6q3[2:1]/7^2[2:1],,
{4},,,46,{8}6h[4:1]/7h[4:1],,,4h[4:1]/8h[4:1],,,2^7[2:1]/3p6[2:1],,
{4},,,8-4[4:1],2,1-5[4:1],7,8<4[2:1],
{4}3,3,2,2,{8}1h[4:1]/4h[4:1],,,5h[4:1]/8h[4:1],,,6^1[4:1],,
{4}3,2,18,67,{8}5h[4:1]/8h[4:1],,,1h[4:1]/4h[4:1],,,3^8[4:1],,
{4}6,6,7,8,56,1,34,8<2[2:1],
{4}5,,1-5[2:1],8,,,27,1b/8b,
{8}34,,25,,3,4,,{4}B4/E2,B4/E7,B4/E2,{8}8,8,,
{8}56,,47,,6,5,,{4}B5/E8,B5/E3,B5/E8,{8}1,1,,
{8}38,,47,,6,5,,4/7h[8:3],,,{4}5h[4:1],4h[4:1],2,
{8}3,,4,,6,5,,4x/8x,,,{4}E1,E3,E5,
{8}56,,47,,6,5,,{4}B5/E8,B5/E3,B5/E8,{8}1,1,,
{8}34,,25,,3,4,,{4}B4/E2,B4/E7,B4/E2,{8}8,8,,
{8}16,,25,,3,4,,5/2h[8:3],,,{4}3h[4:1],4h[4:1],5,
{8}6,6,5,,E4/E8,,3,3,4,,E2/E6,,5,5,4,,
{8}B3/B6,,1,1,8,,{4}E3/E7,47,25,{8}5,4,,36,
{4},{32}E6,B5,B4,E4,
E
Re:MASTER
最終更新:2026年10月21日 19:18