BASIC
ADVANCED
EXPERT
(200)
{8}5h[8:15]/7h[8:29],,,,,,,{1},,
{4}4,4,3,3,2h[1:3]/4h[1:2]{1},,,{4}6,
{8}4/5,4/5,,3/6,3/6,,,
{4}2x/7xh[4:7],2,5,5,,1,6,4,7/2h[4:7],7,4,4,8,8,3,5,2/7h[4:7],2,5,5,1,1,6,4,7/2h[4:3],7,4,4,
{8}6,5,6,,
{4}4/5,3/6,2x/6xh[4:7],2,5,5,7,8,1,2,7/3h[4:7],7,4,4,2,1,8,7,2/6h[4:7],2,5,5,7,8,1,2,
{8}2x/5x,,,4x/7x,,,
{4}2x/7x,3,3,
{8}4/5,4/5,,1b/6b,,,3/6,,5,4,5,,
{4}2h[4:1],3h[4:1],4h[4:1],5,6,5/6,3,3/4,6,5/7,3,2/4,5,3/6,
{8}4,5,4,,
{4}7h[4:1],6h[4:1],5h[4:1],4,3,3/4,6,
{8}4/5,4/5,,
{4}3/6,2/7,1/8,
{8}3b/8b,,,2/7,,5,4,5,,
{4}2,2/4,7,5/7,2h[4:1],3h[4:1],4h[4:1],5,7h[4:1],6h[4:1],5h[4:1],4,3,2/4,
{8}5,4,5,,6,,5/7,,4,5,4,,
{4}2h[4:3],4,5,6,
{8}5/6,5/6,,4,,5,,4x/8xh[8:25],,,,,
{2}E6,E4,E2,E8,
{4}1,1,1>4[4:1],,8,7,6h[1:3],,
{2}E4,E2,E8,E6,
{4}4,4,4>1[4:1],,6,7,8xh[1:3],,
{2}E6,E8,E2,E4,
{4}2,2,2,4/5,3/6,2/7,
{8}6,5,6,,3,4,3,,7,5,7,,2,4,2,,4x/7x,,,2x/5x,,,4x/8x,,,1x/5x,,,
{4}3b/8b,,2x/5x,3/8,2/5,
{8}3,3,,5/6,,3/4,,3/6,3/6,,2,4,2,,4/5,,3/6,6/3-8[4:1],,,,,
{4}3/6-1[4:1],,3h[2:1],5,6h[2:1],4,2h[2:1],4,7h[2:1],5,1h[2:1],3,8,
{8}2/7,2-4[4:1]/7-5[4:1],,,,,
{4}1/2,7/8,4x/7x,1/6,4/7,
{8}6,6,,3/4,,5/6,,3/6,3/6,,7,5,7,,5/6,,1/8,1>4[4:1]/8<5[4:1],,,,,
{4}4/5,3/6,7h[4:1],6h[4:1],5h[4:1],
{8}4,4h[8:7],,,
{4}3,5,6,3h[4:1]/7h[4:1],,4>6[2:1]/5h[4:3],,,,
{8}4,5,4,,5/6,,4/7,4/7,,8,1,8h[8:7],,,
{4}E2,E8,E6,3/4,
{8}2/5,2/5,,1,8,1h[8:7],,,
{4}E8,E2,E4,5/6,
{8}4/7,4/7,,8,1,8h[8:7],,,
{4}E2,E8,E6,3/4,
{8}2/5,2h[4:1]/5h[4:1],,,1/6,1h[8:5]/6x>2[8:3],,,,,,,
{4}2/7,4x/6x,4/6,3/5,3/5,5/6,7/8,1/2,3/4,3x/5x,3/5,4/6,4/6,3/4,1/2,7/8,5/6,4x/6x,4/6,3/5,3/5,5/6,7/8,1/2,
{8}3,3h[8:5],,,6,,6,,4/5,4/5,,4/5,,1x/6x,1b/6b,
E
MASTER
(200)
{1}3h[8:27]/5h[8:23],,
{8},{1},{4}6,6h[8:27],4,{8}4h[8:23],
{1},,
{8},,,,,,,4x/6x,,18,27,36,4x/5x,4x/5x,,,
{8}27,,4,5,3,8,1-3[8:1],,{4}7-5[8:1],2-5[8:1],8-5[8:1],4,
{8}36,,8,1,7,4,5-7[8:1],,{4}3-1[8:1],6-1[8:1],4-1[8:1],8,
{8}27,,4,5,3,8,1-3[8:1],,{4}7-5[8:1],2-5[8:1],8-5[8:1],4,
{4}7-5[8:1],3,7-4[8:1],1,{8}7,8,6,1,5,2,4,3,
{8}35,,8,1,7,4,5-7[8:1],,{4}3-5[8:1],6-1[8:1],4-1[8:1],8,
{8}27,,4,5,3,8,1-3[8:1],,{4}7-1[8:1],2-5[8:1],8-5[8:1],3,
{8}36,,1,8,2,6,4-2[8:1],,{4}6-4[8:1],3-8[8:1],5-8[8:1],2,
{8}2,4,3,7,5,6,1,3,2,8,6,7,18,1-4[8:1]/8-5[8:1],,,
{8},,3/6h[4:1],,5,5,5/7h[4:1],,4,,5/6h[4:1],,4,4,4/7h[4:1],,
{4}5,3/6h[4:1],5,{8}7,57,,45,,35,35,,46,46,
{8},4,6/3h[4:1],,4,4,4/2h[4:1],,5,,4/3h[4:1],,5,5,5/2h[4:1],,
{4}4,4/3h[4:1],5,{8}2,24,,{4}45,57,28,{8}4x/5x,
{8},4,4/6h[4:1],,5,5,5/7h[4:1],,4,,2/6h[4:1],,5,5,5/7h[4:1],,
{4}4,3/6h[4:1],4,{8}7,57,,36,36,,3x/5x,,4x/6x,,
{8}45,,3,5/3h[4:1],,4,,4/2h[4:1],,3,3,,45,,6/2h[4:1],,
{4}4,4/3h[4:1],6,3/5h[8:3],{8}1s5[4:3],1,,6x,,7x,,8xh[8:5],
{2},5^2[2:1],8^5[2:1],3^8[2:1],
{4}5pp1[4:5],,,{8}4x,3x,2h[2:1],,,,,,,,
{2}1^4[2:1],6^1[2:1],3^6[2:1],7p4[4:3],
{2}3h[8:3],3pp4[2:1]*V14[2:1],,{4}7,6,
{4}5/4h[4:3],5,B6/B7,,5/4h[4:3],5,B6/B7,,
{4}4/5h[4:3],4,B2/B3,4-1[4:1],,,45,27,
{4}6h[2:1],B6,4h[2:1],B4,5h[2:1],B5,3h[4:1],B3,
{8}2x/4x,2xh[8:1]/4xh[8:1],,5x/7x,5xh[8:1]/7xh[8:1],,3x/6x,3xh[8:1]/6xh[8:1],,1x/8x,1xh[8:1]/8xh[8:1],,2b/7b,,,,
{4}16,7-4[8:1]/8-4[8:1],78,{8}3,28,,1-5[8:1]/2-5[8:1],,12,,7,7^2[4:1],,
{4}2^5[4:1],5^8[4:1],8,{8}2,12,,4,3b/5b,,6,5,4,3,
{4}2^5[8:1],1,7^4[8:1],{8}8,8^3[8:1],,4,5,6^3[8:1],,3,2,1,
{4}8^3[4:1],3^6[4:1],6-2[4:1],{8}8,8,,5,4b/6b,,45,,1-4[8:1]/8-5[8:1],,
{4}18,1-5[8:1]/2-5[8:1],12,{8}6,17,,7-4[8:1]/8-4[8:1],,78,,2,2^7[4:1],,
{4}7^4[4:1],4^1[4:1],1,{8}7,47,,1,2b/8b,,3,4,5,6,
{4}7^4[8:1],8,2^5[8:1],{8}1,1-6[8:1],,5,5-1[8:1],,7-3[8:1],,8-3[8:1],,
{4}4^7[4:1],7^2[4:1],2^5[4:1],5,8,1w5[8:1],1b,,
{8}1/7-4[8:1],,1,2,,2-5[8:1],1,2,,8,7,6,1,5,2,4,
{8}3-8[8:1],,8,7,,7^4[8:1],8,7,,2^7[8:1],4,2,5,6,3b/7b,,
{8}8/2-5[8:1],,8,7,,7-4[8:1],8,7,,1,2,3,8,4,7,5,
{8}6-1[8:1],,1,2,,2^5[8:1],1,2,,8w4[8:1],,8b,,1,1,,
{8}4/2^7[8:1],,5,5,,6^3[8:1],7,6,,8,1,2,3,4,5,6,
{8}5/7^2[8:1],,4,4,,3^6[8:1],2,3,,1,8,7,6,5,4,3,
{8}28,3,45,6,78,1,28,3,4x/5x,1x/8x,2b/7b,,6-1[8:1],2-5[8:1],6,2,
{8},8,8h[4:1],,3,7,2,2-5[8:1]/6-1[8:1],,2b/6b,,4,3b/7b,
E
Re:MASTER
最終更新:2026年09月06日 16:10